انقر هنا لمشاهدة النسخة الكاملة للصفحة

تورنت - Open Season 3 2010 1080p BluRay x264 DTS - LameyHost مدبلج للعربية

افلام الحجم : 5.08 GB التراكر: داخلي المتصلين : 0,0  اكتمل ( 84 ) 13/10/2019 تحميل التورنت

السلام عليكم ورحمة الله وبركاته

مع الجزء الثالث من رباعية موسم الصيد

مدبلج بلوري

OPEN SEASON 3


 1 arabp2p.com

+ العمل مدعوم بسيد بوكس

معلومات عن الإصدارة


Code
Complete name               : D:lameyhost‎Open.Season.Quadrilogy.1080p.BluRay.x264.DTS-LameyHostOpen.Season.3.2010.1080p.BluRay.x264.DTS-LameyHostOpen.Season.3.2010.1080p.BluRay.x264.DTS-LameyHost.mkv
Format                      : Matroska
Format version              : Version 4 / Version 2
File size                   : 5.07 GiB
Duration                    : 1 h 14 min
Overall bit rate            : 9 734 kb/s
Movie name                  : Open.Season.3.2011.1080p.BluRay.x264.DTS-FGT
Encoded date                : UTC 2019-10-13 18:02:17
Writing application         : mkvmerge v38.0.0 ('The Silent Type') 64-bit
Writing library             : libebml v1.3.9 + libmatroska v1.5.2

Video
ID                          : 1
Format                      : AVC
Format/Info                 : Advanced Video Codec
Format profile              : High@L4.1
Format settings             : CABAC / 4 Ref Frames
Format settings, CABAC      : Yes
Format settings, ReFrames   : 4 frames
Codec ID                    : V_MPEG4/ISO/AVC
Duration                    : 1 h 14 min
Bit rate                    : 8 083 kb/s
Width                       : 1 920 pixels
Height                      : 1 080 pixels
Display aspect ratio        : 16:9
Frame rate mode             : Constant
Frame rate                  : 23.976 FPS
Color space                 : YUV
Chroma subsampling          : 4:2:0
Bit depth                   : 8 bits
Scan type                   : Progressive
Bits/(Pixel*Frame)          : 0.163
Stream size                 : 4.18 GiB (83%)
Writing library             : x264 core 107 r1766 f9f0035
Encoding settings           : cabac=1 / ref=4 / deblock=1:-2:-2 / *censored*yse=0x3:0x113 / me=umh / subme=10 / psy=1 / psy_rd=1.00:0.00 / mixed_ref=1 / me_range=48 / chroma_me=1 / trellis=2 / 8x8dct=1 / cqm=2 / deadzone=21,11 / fast_pskip=0 / chroma_qp_offset=-1 / threads=12 / sliced_threads=0 / nr=0 / decimate=1 / interlaced=0 / constrained_intra=0 / bframes=6 / b_pyramid=2 / b_adapt=2 / b_bias=0 / direct=3 / weightb=1 / open_gop=0 / weightp=2 / keyint=250 / keyint_min=23 / scenecut=40 / intra_refresh=0 / rc_lookahead=40 / rc=2pass / mbtree=0 / bitrate=8083 / ratetol=1.0 / qcomp=0.70 / qpmin=10 / qpmax=51 / qpstep=4 / cplxblur=20.0 / qblur=0.5 / vbv_maxrate=45000 / vbv_bufsize=40000 / ip_ratio=1.40 / pb_ratio=1.30 / aq=1:0.80 / nal_hrd=none
Language                    : English
Default                     : Yes
Forced                      : No

Audio #1
ID                          : 2
Format                      : DTS
Format/Info                 : Digital Theater Systems
Codec ID                    : A_DTS
Duration                    : 1 h 14 min
Bit rate mode               : Constant
Bit rate                    : 1 509 kb/s
Channel(s)                  : 6 channels
Channel positions           : Front: L C R, Side: L R, LFE
Sampling rate               : 48.0 kHz
Frame rate                  : 93.750 FPS (512 SPF)
Bit depth                   : 24 bits
Compression mode            : Lossy
Stream size                 : 805 MiB (16%)
Language                    : English
Default                     : No
Forced                      : No

Audio #2
ID                          : 3
Format                      : AC-3
Format/Info                 : Audio Coding 3
Codec ID                    : A_AC3
Duration                    : 1 h 14 min
Bit rate mode               : Constant
Bit rate                    : 192 kb/s
Channel(s)                  : 2 channels
Channel positions           : Front: L R
Sampling rate               : 44.1 kHz
Frame rate                  : 28.711 FPS (1536 SPF)
Bit depth                   : 16 bits
Compression mode            : Lossy
Stream size                 : 102 MiB (2%)
Language                    : Arabic
Service kind                : Complete Main
Default                     : Yes
Forced                      : No

Text
ID                          : 4
Format                      : UTF-8
Codec ID                    : S_TEXT/UTF8
Codec ID/Info               : UTF-8 Plain Text
Duration                    : 1 h 13 min
Bit rate                    : 84 b/s
Count of elements           : 871
Stream size                 : 45.9 KiB (0%)
Language                    : Arabic
Default                     : Yes
Forced                      : No




 2 arabp2p.com
 3 arabp2p.com
 4 arabp2p.com
 5 arabp2p.com
 6 arabp2p.com
 7 arabp2p.com
 8 arabp2p.com


الملفات ذات العلاقة بـ ( Open Season 3 2010 1080p BluRay x264 DTS - LameyHost مدبلج للعربية )
Tinker Bell Hexalogy 1080p BluRay x264 LameyHost المجموعة الكاملة سبع افلام تنكر بيل "تنة ورنة" مدبلج للعربية 1 0 27.27 GB
مدبلج للعربية Inside Out 2015 1080p BluRay x264 DTS-alrmothe 2 0 13.76 GB
مدبلج للعربية Moana 2016 1080p BluRay x264 DTS-alrmothe 1 0 13.56 GB
مدبلج للعربية Kung Fu Panda 3 2016 1080p BluRay x264 DTS-alrmothe 2 0 10.27 GB
مدبلج للعربية How to Train Your Dragon Trilogy 2010-2014 1080p Bluray x264 2Audio-alrmothe 3 0 20.95 GB
LameyHostشكراً لكم جميعاً اسعدني مروركم
mohamed13300https://www9.0zz0.com/2019/08/19/21/148550907.gif
Maldinyشكرا يا ورد

الرئيسية - قائمة ملفات التورنت - فيسبوك