انقر هنا لمشاهدة النسخة الكاملة للصفحة

تورنت - Open Season 2 2008 1080p BluRay x264 DTS - Lameyhost مدبلج للعربية

افلام الحجم : 4.65 GB التراكر: داخلي المتصلين : 0,3  اكتمل ( 82 ) 13/10/2019 تحميل التورنت

السلام عليكم ورحمة الله وبركاته

مع الجزء الثاني من رباعية موسم الصيد

مدبلج بلوري

OPEN SEASON 2


 1 arabp2p.com

+ العمل مدعوم بسيد بوكس

معلومات عن الإصدارة


Code
Complete name               : D:lameyhost‎Open.Season.Quadrilogy.1080p.BluRay.x264.DTS-LameyHostOpen.Season.2.2008.1080p.BluRay.x264.DTS-LameyhostOpen.Season.2.2008.1080p.BluRay.x264.DTS-Lameyhost.mkv
Format                      : Matroska
Format version              : Version 4 / Version 2
File size                   : 4.64 GiB
Duration                    : 1 h 16 min
Overall bit rate            : 8 695 kb/s
Movie name                  : Open.Season.2.2008.1080p.BluRay.x264.DTS-FGT
Encoded date                : UTC 2019-10-13 17:36:37
Writing application         : mkvmerge v38.0.0 ('The Silent Type') 64-bit
Writing library             : libebml v1.3.9 + libmatroska v1.5.2

Video
ID                          : 1
Format                      : AVC
Format/Info                 : Advanced Video Codec
Format profile              : High@L4.1
Format settings             : CABAC / 4 Ref Frames
Format settings, CABAC      : Yes
Format settings, ReFrames   : 4 frames
Codec ID                    : V_MPEG4/ISO/AVC
Duration                    : 1 h 16 min
Bit rate                    : 6 685 kb/s
Width                       : 1 920 pixels
Height                      : 1 080 pixels
Display aspect ratio        : 16:9
Frame rate mode             : Constant
Frame rate                  : 23.976 FPS
Color space                 : YUV
Chroma subsampling          : 4:2:0
Bit depth                   : 8 bits
Scan type                   : Progressive
Bits/(Pixel*Frame)          : 0.134
Stream size                 : 3.57 GiB (77%)
Writing library             : x264 core 65 r1047M f773bf0
Encoding settings           : cabac=1 / ref=4 / deblock=1:-2:-2 / *censored*yse=0x3:0x113 / me=esa / subme=9 / psy_rd=0.9:0.0 / mixed_ref=1 / me_range=32 / chroma_me=1 / trellis=2 / 8x8dct=1 / cqm=0 / deadzone=21,11 / chroma_qp_offset=-2 / threads=6 / nr=0 / decimate=1 / mbaff=0 / bframes=16 / b_pyramid=1 / b_adapt=1 / b_bias=0 / direct=3 / wpredb=1 / keyint=250 / keyint_min=25 / scenecut=40(pre) / rc=2pass / bitrate=6685 / ratetol=1.0 / qcomp=0.60 / qpmin=10 / qpmax=51 / qpstep=4 / cplxblur=20.0 / qblur=0.5 / ip_ratio=1.40 / pb_ratio=1.30 / aq=1:1.00
Language                    : English
Default                     : Yes
Forced                      : No

Audio #1
ID                          : 2
Format                      : DTS
Format/Info                 : Digital Theater Systems
Codec ID                    : A_DTS
Duration                    : 1 h 16 min
Bit rate mode               : Constant
Bit rate                    : 1 510 kb/s
Channel(s)                  : 6 channels
Channel positions           : Front: L C R, Side: L R, LFE
Sampling rate               : 48.0 kHz
Frame rate                  : 93.750 FPS (512 SPF)
Bit depth                   : 16 bits
Compression mode            : Lossy
Stream size                 : 825 MiB (17%)
Language                    : English
Default                     : No
Forced                      : No

Audio #2
ID                          : 3
Format                      : AC-3
Format/Info                 : Audio Coding 3
Codec ID                    : A_AC3
Duration                    : 1 h 14 min
Bit rate mode               : Constant
Bit rate                    : 512 kb/s
Channel(s)                  : 2 channels
Channel positions           : Front: L R
Sampling rate               : 48.0 kHz
Frame rate                  : 31.250 FPS (1536 SPF)
Bit depth                   : 16 bits
Compression mode            : Lossy
Stream size                 : 272 MiB (6%)
Language                    : Arabic
Service kind                : Complete Main
Default                     : Yes
Forced                      : No

Text
ID                          : 4
Format                      : UTF-8
Codec ID                    : S_TEXT/UTF8
Codec ID/Info               : UTF-8 Plain Text
Duration                    : 1 h 10 min
Bit rate                    : 119 b/s
Count of elements           : 1281
Stream size                 : 61.5 KiB (0%)
Language                    : Arabic
Default                     : Yes
Forced                      : No




 2 arabp2p.com
 3 arabp2p.com
 4 arabp2p.com
 5 arabp2p.com
 6 arabp2p.com
 7 arabp2p.com


الملفات ذات العلاقة بـ ( Open Season 2 2008 1080p BluRay x264 DTS - Lameyhost مدبلج للعربية )
Open Season 2006 1080p BluRay x264 DTS - LameyHost مدبلج للعربية 3 0 6.98 GB
Open Season 3 2010 1080p BluRay x264 DTS - LameyHost مدبلج للعربية 3 1 5.08 GB
Open Season Quadrilogy 1080p BluRay x264 DTS LameyHost رباعية موسم الصيد المفتوح مدبلج للعربية 5 0 21.22 GB
Open Season Scared Silly 2015 1080p BluRay x264 - LameyHost مدبلج للعربية 3 1 4.49 GB
Tinker Bell 2008 1080p BluRay x264 LameyHost الجزء الأول من تنكر بيل تنة ورنة مدبلج للعربية 2 1 4.48 GB
LameyHostشكراً لكم جميعاً اسعدني مروركم
mohamed13300https://www9.0zz0.com/2019/08/19/21/148550907.gif
Maldinyشكرا يا ورد

الرئيسية - قائمة ملفات التورنت - فيسبوك