انقر هنا لمشاهدة النسخة الكاملة للصفحة

تورنت - Open Season 2006 1080p BluRay x264 DTS - LameyHost مدبلج للعربية

افلام الحجم : 6.98 GB التراكر: داخلي المتصلين : 0,7  اكتمل ( 86 ) 13/10/2019 تحميل التورنت

السلام عليكم ورحمة الله وبركاته

مع الجزء الأول من رباعية موسم الصيد

مدبلج بلوري

OPEN SEASON 1


 1 arabp2p.com

+ العمل مدعوم بسيد بوكس

معلومات عن الإصدارة


Code
Encoded date                : UTC 2019-10-13 17:58:14
Writing application         : mkvmerge v38.0.0 ('The Silent Type') 64-bit
Writing library             : libebml v1.3.9 + libmatroska v1.5.2

Video
ID                          : 1
Format                      : AVC
Format/Info                 : Advanced Video Codec
Format profile              : High@L4.1
Format settings             : CABAC / 4 Ref Frames
Format settings, CABAC      : Yes
Format settings, ReFrames   : 4 frames
Codec ID                    : V_MPEG4/ISO/AVC
Duration                    : 1 h 26 min
Bit rate                    : 9 760 kb/s
Width                       : 1 920 pixels
Height                      : 1 040 pixels
Display aspect ratio        : 1.85:1
Frame rate mode             : Constant
Frame rate                  : 23.976 (24000/1001) FPS
Color space                 : YUV
Chroma subsampling          : 4:2:0
Bit depth                   : 8 bits
Scan type                   : Progressive
Bits/(Pixel*Frame)          : 0.204
Stream size                 : 5.80 GiB (83%)
Writing library             : x264 core 116 r2074kMod 2641b9e
Encoding settings           : cabac=1 / ref=4 / deblock=1:-2:-2 / *censored*yse=0x3:0x133 / me=tesa / subme=11 / psy=1 / fade_compensate=0.00 / psy_rd=0.60:0.00 / mixed_ref=1 / me_range=32 / chroma_me=1 / trellis=2 / 8x8dct=1 / cqm=0 / deadzone=21,11 / fast_pskip=0 / chroma_qp_offset=-2 / threads=12 / sliced_threads=0 / nr=0 / decimate=1 / interlaced=0 / bluray_compat=0 / constrained_intra=0 / bframes=8 / b_pyramid=2 / b_adapt=2 / b_bias=0 / direct=3 / weightb=1 / open_gop=0 / weightp=2 / keyint=250 / keyint_min=23 / scenecut=40 / intra_refresh=0 / rc_lookahead=60 / rc=abr / mbtree=0 / bitrate=9760 / ratetol=1.0 / qcomp=0.70 / qpmin=0 / qpmax=69 / qpstep=4 / vbv_maxrate=50000 / vbv_bufsize=62500 / nal_hrd=none / ip_ratio=1.40 / pb_ratio=1.30 / aq=3:0.70
Language                    : English
Default                     : Yes
Forced                      : No
Color range                 : Limited
Matrix coefficients         : BT.709

Audio #1
ID                          : 2
Format                      : DTS
Format/Info                 : Digital Theater Systems
Codec ID                    : A_DTS
Duration                    : 1 h 26 min
Bit rate mode               : Constant
Bit rate                    : 1 510 kb/s
Channel(s)                  : 6 channels
Channel positions           : Front: L C R, Side: L R, LFE
Sampling rate               : 48.0 kHz
Frame rate                  : 93.750 FPS (512 SPF)
Bit depth                   : 16 bits
Compression mode            : Lossy
Stream size                 : 931 MiB (13%)
Language                    : English
Default                     : No
Forced                      : No

Audio #2
ID                          : 3
Format                      : AC-3
Format/Info                 : Audio Coding 3
Codec ID                    : A_AC3
Duration                    : 1 h 26 min
Bit rate mode               : Constant
Bit rate                    : 448 kb/s
Channel(s)                  : 6 channels
Channel positions           : Front: L C R, Side: L R, LFE
Sampling rate               : 48.0 kHz
Frame rate                  : 31.250 FPS (1536 SPF)
Bit depth                   : 16 bits
Compression mode            : Lossy
Stream size                 : 276 MiB (4%)
Language                    : Arabic
Service kind                : Complete Main
Default                     : Yes
Forced                      : No



 2 arabp2p.com
 3 arabp2p.com
 4 arabp2p.com
 5 arabp2p.com
 6 arabp2p.com


الملفات ذات العلاقة بـ ( Open Season 2006 1080p BluRay x264 DTS - LameyHost مدبلج للعربية )
Open Season 3 2010 1080p BluRay x264 DTS - LameyHost مدبلج للعربية 7 0 5.08 GB
Open Season 2 2008 1080p BluRay x264 DTS - Lameyhost مدبلج للعربية 6 0 4.65 GB
Open Season Quadrilogy 1080p BluRay x264 DTS LameyHost رباعية موسم الصيد المفتوح مدبلج للعربية 4 0 21.22 GB
Open Season Scared Silly 2015 1080p BluRay x264 - LameyHost مدبلج للعربية 6 0 4.49 GB
Toy Story 4 2019 1080p BluRay REMUX AVC DTS-HD MA TrueHD 7 1 Atmos - LameyHost مدبلج للعربية 3 1 27.59 GB
LameyHost شكرا جزيلا لك اخي الكريم العفو أخي الغالي أسعدني مرورك
pingomanشكرا جزيلا لك اخي الكريم
LameyHost عاميه مصري ولا فصحي ؟ فصحى
LameyHostشكراً لكم جميعاً اسعدني مروركم
Ashryعاميه مصري ولا فصحي ؟
mohamed13300https://www9.0zz0.com/2019/08/19/21/148550907.gif
Maldinyشكرا يا ورد

الرئيسية - قائمة ملفات التورنت - فيسبوك