انقر هنا لمشاهدة النسخة الكاملة للصفحة

تورنت - Finding Nemo 2003 BluRay 1080p x264 2Audio (English,Arabic) - alrmothe

افلام الحجم : 8.11 GB التراكر: خارجي المتصلين : 6,3  اكتمل ( 18 ) 15/12/2012 تحميل التورنت

.


Movies : Animation : HD1080p :2Audio

Finding Nemo 2003 BluRay 1080p x264 2Audio(English,Arabic) - alrmothe

 1 arabp2p.com



 2 arabp2p.com


الفيديو بقناتين الإنجليزية والعربية


 3 arabp2p.com
IMDB:
http://www.imdb.com/title/tt0266543/
Genre: Animation | Adventure | Comedy
Source:Blu-ray Disc
Language:Arabic, English
File size:8.06 GiB
Overall bit rate:11 MKbps
Duration:1h 40mn
Encoded / Released By:alrmothe



 4 arabp2p.com

Video Information
Video
Format : AVC
Format/Info : Advanced Video Codec
Format profile : High@L4.1
Runtime: 1h 40min 53sec
bit rate: 10200 Kbps
Frame rate: 23.976 fps
Display aspect ratio: 16:9
Bit depth : 8 bits
Bits/(Pixel*Frame) : 0.204
Stream size : 7 GiB (87%)
Resolution:1920x1080


Audio Information:
Audio #1
Format : AC-3 EX
Bit rate mode : Constant
Bit rate : 640 Kbps
Channel(s) : 6 channels
Channel positions:Front: L C R, Side:L R,LFE
Sampling rate : 48.0 KHz
Bit depth : 16 bits
Compression mode : Lossy
Stream size:462 MiB(6%)
Language:English

Audio #2
Format : AC-3 EX
Bit rate mode : Constant
Bit rate : 640 Kbps
Channel(s) : 6 channels
Channel positions:Front: L C R, Side:L R,LFE
Sampling rate : 48.0 KHz
Bit depth : 16 bits
Compression mode : Lossy
Stream size:462 MiB(6%)
Language:Arabic

كل الترجمات خارجية مسحوبة من قرص البلوراي تجدون الترجمة في ملف اسمه SUB

SUB:English,Arabic,Russian,Ukrainian.sub

 5 arabp2p.com

Screenshots

 6 arabp2p.com

 7 arabp2p.com

 8 arabp2p.com


 9 arabp2p.com



Code

http://fr33dom.h33t.com:3310/announce
http://121.14.98.151:9090/announce
http://tracker.ex.ua/announce
http://tracker.torrentbay.to:6969/announce
http://exodus.desync.com:6969/announce
http://94.228.192.98/announce
http://tracker.coppersurfer.tk:6969/announce
udp://tracker.istole.it:80/announce
udp://fr33dom.h33t.com:3310/announce



















Trailer
http://www.youtube.com/watch?v=0L-JVmX1Dl4











.

الملفات ذات العلاقة بـ ( Finding Nemo 2003 BluRay 1080p x264 2Audio (English,Arabic) - alrmothe )
Finding Nemo [2003] 1080p Arabic 2 0 1.57 GB
مدبلج للعربية Wreck It Ralph 2012 1080p BluRay x264 2Audio (English,Arabic) - alrmothe 9 5 8.19 GB
فندق ترانسلفانيا مدبلج للعربية Hotel Transylvania 2012 1080p BluRay x264 2Audio (English,Arabic) multisub - alrmothe 7 2 6.95 GB
الجزء الثاني اخي الدب مدبلج للعربية Brother Bear 2 2006 1080p BluRay x264 2Audio (English,Arabic) - alrmothe 1 5 4.48 GB
البحث عن نيمو مدبلج Finding Nemo 2003 HDTVRip 720p Audio Arabic 1 0 2.83 GB
habibleoشكراً على الاضافة ممكن سيد للملف من فضلك
pepo94ممكن سيد للفيلم بعد اذنكم
الف شكر على الطرح ،، ممكن سييد للملف
rosy_cheekthnxxxxxxxxxxxx
mimo_007007شكرا جزيلا ...
zin123تسلم ايدك يا فنان ,,, تاه ولقيناه , وباعلى سرعه :)
MajidMohdشكرا لك اخي
asheqalreemمشكور اخوووي
eljokerhttp://img19.imageshack.us/img19/9593/2d97871c97.gif
zin123http://img94.imageshack.us/img94/1521/bthanks.gif

الرئيسية - قائمة ملفات التورنت - فيسبوك