انقر هنا لمشاهدة النسخة الكاملة للصفحة

تورنت - Deewaar 1975 مترجم Bluray.720p درامى أكشن اميتاب وشاشى كابور

افلام هنديه الحجم : 4.30 GB التراكر: داخلي المتصلين : 0,5  اكتمل ( 38 ) 09/04/2019 تحميل التورنت

 1 arabp2p.com







فيلم الأكشن الدرامى المتميز

Deewaar 1975
(جدار)

بطولة
الأسطورة أميتاب
شاشى كابور
نيتو سينج
بارفين بابى
نيريبا روى


بترجمة جديدة للمترجم الكبير
أيهاب نصار


نسخة Bluray.720p مترجمة غير مضغوطة بمساحة 4.30 جيجا

معلومات عن الفيلم
أول لقاء بين أميتاب وأسطورة الأخراج ياش شوبرا
الفيلم من أفضل 10 أفلام فى تاريخ بوليوود وأخذ جائزة فيلم فير أفضل فيلم 1976
تم تبديل أدوار اميتاب وشاشى كابور فقام اميتاب بدور الأخ الأكبر
وشاشى الأخ الأصغر رغم ان اميتاب اصغر من شاشى فى الواقع وكان تفكير
صائب من عبقرى بوليوود ياش شوبرا لأجادة اميتاب دور الشاب الغاضب
فى حين حصل شاشى على جائزة أحسن ممثل مساعد

 2 arabp2p.com

 3 arabp2p.com

 4 arabp2p.com

 5 arabp2p.com
General
Deewaar.1975.Bluray.720p.x264.by.nemr23.mp4
Format                      : MPEG-4
Format profile              : Base Media
Codec ID                    : isom (isom/iso2/avc1/mp41)
File size                   : 4.30 GiB
Duration                    : 2 h 51 min
Overall bit rate mode       : Variable
Overall bit rate            : 3 591 kb/s
Encoded date                : UTC 2019-04-04 02:21:20
Tagged date                 : UTC 2019-04-04 02:21:20
Writing application         : Lavf51.12.1

Video
ID                          : 1
Format                      : AVC
Format/Info                 : Advanced Video Codec
Format profile              : High@L5
Format settings             : CABAC / 5 Ref Frames
Format settings, CABAC      : Yes
Format settings, ReFrames   : 5 frames
Format settings, GOP        : M=4, N=13
Codec ID                    : avc1
Codec ID/Info               : Advanced Video Coding
Duration                    : 2 h 51 min
Bit rate                    : 3 452 kb/s
Width                       : 1 920 pixels
Height                      : 1 080 pixels
Display aspect ratio        : 16:9
Frame rate mode             : Constant
Frame rate                  : 24.000 FPS
Color space                 : YUV
Chroma subsampling          : 4:2:0
Bit depth                   : 8 bits
Scan type                   : Progressive
Bits/(Pixel*Frame)          : 0.069
Stream size                 : 4.13 GiB (96%)
Encoded date                : UTC 2019-04-04 02:21:20
Tagged date                 : UTC 2019-04-04 02:21:20
Codec configuration box     : avcC

Audio
ID                          : 2
Format                      : AAC
Format/Info                 : Advanced Audio Codec
Format profile              : LC
Codec ID                    : mp4a-40-2
Duration                    : 2 h 51 min
Bit rate mode               : Variable
Bit rate                    : 132 kb/s
Channel(s)                  : 2 channels
Channel positions           : Front: L R
Sampling rate               : 48.0 kHz
Frame rate                  : 46.875 FPS (1024 SPF)
Compression mode            : Lossy
Stream size                 : 162 MiB (4%)
Encoded date                : UTC 2019-04-04 02:21:20
Tagged date                 : UTC 2019-04-04 02:21:20


 6 arabp2p.com

 7 arabp2p.com

 8 arabp2p.com

 9 arabp2p.com

 10 arabp2p.com

 11 arabp2p.com

 12 arabp2p.com

 13 arabp2p.com

 14 arabp2p.com

 15 arabp2p.com

 16 arabp2p.com

 17 arabp2p.com

 18 arabp2p.com

الملفات ذات العلاقة بـ ( Deewaar 1975 مترجم Bluray.720p درامى أكشن اميتاب وشاشى كابور )
Kabhi Kabhie.1976 مترجم BluRay رومانسى اميتاب وشاشى كابور 1 0 2.93 GB
Zameer 1975 مترجم mp4 أكشن لأميتاب وشامى كابور 5 0 2.42 GB
Deewaar (1975) - BluRay - 720p - x264 - AC3 - ARBICSub 1 1 3.00 GB
فيلم اميتاب القوي Deewaar 2004 مع الترجمة العربية 13 0 1.28 GB
Shakti 1982 مترجم DVDRip درامى أكشن أميتاب ودليب كومار 1 0 2.60 GB
zin123تم مشاهدة الفلم ,, مميز ورائع شكراً على مرورك العطر اخي ايهاب
nemr23 الف شكر يا صديقي على رفع الفيلم الرائع للاسطورة اميتاب وننتظر منك المزيد من تلك الروائع وانصح الجميع بتحميل ومشاهدة فيلم ديوار لانه فيلم مميز وقوي جدا بكل شئ البركة فى ترجمتك الجديدة الكاملة يا مترجمنا الكبير التى اضافت رونق على احد روائع السينما الهندية قصة واخراج واداء ومضمون قوى
nemr23 اضافة رائعه وتسلم الانامل يا بطل . دائما مرورك يسعدنى اخى الغالى نورت الموضوع
EHAB-NASSARالف شكر يا صديقي على رفع الفيلم الرائع للاسطورة اميتاب وننتظر منك المزيد من تلك الروائع وانصح الجميع بتحميل ومشاهدة فيلم ديوار لانه فيلم مميز وقوي جدا بكل شئ
zin123اضافة رائعه وتسلم الانامل يا بطل .

الرئيسية - قائمة ملفات التورنت - فيسبوك