انقر هنا لمشاهدة النسخة الكاملة للصفحة

تورنت - Ram Balram 1980 مترجم DvDRip أكشن لأميتاب ودارمندرا

افلام هنديه الحجم : 2.11 GB التراكر: داخلي المتصلين : 0,6  اكتمل ( 56 ) 28/02/2019 تحميل التورنت

 1 arabp2p.com





فيلم الأكشن النادر

Ram Balram 1980

بطولة
الثنائى الأروع أميتاب & دارمندرا
ريكا
زينات أمان
أمجد خان

ألف شكر للمترجم الكبير
أيهاب نصار

شكر خاص على تعديل التوقيت لأخى
تل الأبرق
lady-leen


نسخة مترجمة DvDRip بمساحة 2.10 جيجا

 2 arabp2p.com

 3 arabp2p.com

 4 arabp2p.com
General
Ram Balram 1980  DvDRip x264,by.nemr23.mp4
Format                      : MPEG-4
Format profile              : Base Media
Codec ID                    : isom (isom/iso2/mp41)
File size                   : 2.11 GiB
Duration                    : 2 h 50 min
Overall bit rate mode       : Variable
Overall bit rate            : 1 773 kb/s
Writing application         : Lavf56.15.100

Video
ID                          : 1
Format                      : HEVC
Format/Info                 : High Efficiency Video Coding
Format profile              : Main@L4@Main
Codec ID                    : hev1
Codec ID/Info               : High Efficiency Video Coding
Duration                    : 2 h 50 min
Bit rate                    : 1 452 kb/s
Width                       : 1 920 pixels
Height                      : 1 080 pixels
Display aspect ratio        : 16:9
Frame rate mode             : Constant
Frame rate                  : 29.970 (30000/1001) FPS
Color space                 : YUV
Chroma subsampling          : 4:2:0
Bit depth                   : 8 bits
Scan type                   : Progressive
Bits/(Pixel*Frame)          : 0.023
Stream size                 : 1.73 GiB (82%)
Writing library             : x265 1.4:[Windows][GCC 4.9.2][32 bit]
Encoding settings           : wpp / ctu=32 / tu-intra-depth=1 / tu-inter-depth=1 / me=0 / subme=0 / merange=25 / no-rect / no-amp / max-merge=2 / temporal-mvp / early-skip / no-fast-cbf / rdpenalty=0 / no-tskip / no-tskip-fast / strong-intra-smoothing / no-lossless / no-cu-lossless / no-constrained-intra / fast-intra / open-gop / interlace=0 / keyint=250 / min-keyint=25 / scenecut=0 / rc-lookahead=10 / bframes=4 / bframe-bias=0 / b-adapt=0 / ref=1 / no-weightp / no-weightb / aq-mode=0 / aq-strength=0.00 / cbqpoffs=0 / crqpoffs=0 / rd=2 / psy-rd=0.00 / psy-rdoq=0.00 / no-signhide / no-lft / no-sao / no-sao-non-deblock / b-pyramid / no-cutree / rc=crf / crf=28.0 / qcomp=0.60 / qpmin=0 / qpmax=51 / qpstep=4 / ipratio=1.40 / pbratio=1.30
Codec configuration box     : hvcC

Audio
ID                          : 2
Format                      : AAC
Format/Info                 : Advanced Audio Codec
Format profile              : LC
Codec ID                    : mp4a-40-2
Duration                    : 2 h 50 min
Duration_LastFrame          : -19 ms
Bit rate mode               : Variable
Bit rate                    : 313 kb/s
Maximum bit rate            : 320 kb/s
Channel(s)                  : 2 channels
Channel positions           : Front: L R
Sampling rate               : 44.1 kHz
Frame rate                  : 43.066 FPS (1024 SPF)
Compression mode            : Lossy
Stream size                 : 381 MiB (18%)
Default                     : Yes
Alternate group             : 1


 5 arabp2p.com

 6 arabp2p.com

 7 arabp2p.com

 8 arabp2p.com

 9 arabp2p.com

 10 arabp2p.com

 11 arabp2p.com

 12 arabp2p.com

 13 arabp2p.com

 14 arabp2p.com

 15 arabp2p.com

الملفات ذات العلاقة بـ ( Ram Balram 1980 مترجم DvDRip أكشن لأميتاب ودارمندرا )
NASEEB 1981 مترجم hd أكشن لأميتاب وريشى كابور 8 0 5.03 GB
Kaalia 1981 hd مترجم أكشن وجريمة. لأميتاب وأمجد خان 4 0 4.20 GB
Zameer 1975 مترجم mp4 أكشن لأميتاب وشامى كابور 4 0 2.42 GB
Bade Miya Chote Miya 1998 مترجم mkv 1080p أكشن كوميدى لأميتاب وجوفندا 2 0 4.43 GB
Do Anjaane.1976. DvDrip,مترجم لأميتاب وريكا 1 0 1.86 GB
nemr23 شكراً جزيلاً يا صديقي من أروع ما قدم لنا الثنائي اميتاب ودارمندرا ننتظر جديدك ... الله يعطيك العافية تسلم اخى الغالى وكل الشكر لشخصك على تعديل التوقيت دائما يسعدنى مرورك
nemr23 اكثر من رائع وتسلم الانامل . ربنا يبارك فيك بو عبدالله الغالى دئما منور مواضيعى
lady-leenشكراً جزيلاً يا صديقي من أروع ما قدم لنا الثنائي اميتاب ودارمندرا ننتظر جديدك ... الله يعطيك العافية
zin123اكثر من رائع وتسلم الانامل .

الرئيسية - قائمة ملفات التورنت - فيسبوك