انقر هنا لمشاهدة النسخة الكاملة للصفحة

تورنت - Baazi 1995 مترجم DVDRip أكشن وجريمة عامر خان

افلام هنديه الحجم : 1.21 GB التراكر: داخلي المتصلين : 0,4  اكتمل ( 40 ) 18/02/2019 تحميل التورنت

 1 arabp2p.com







فيلم الأكشن والجريمة

Baazi 1995

بطولة
عامر خان
مامتا كولكارنى
باريش روال
رازا مراد

ألف شكر للمترجم الكبير
أيهاب تصار

نسخة مترجمة DVDRip XviD بمساحة 1.20 جيجا

قصة الفيلم
يقوم مفتش الشرطة عمار دمجى (عامر خان) بإنقاذ رئيس الوزراء تشودرى (مرزا مراد)
من مجموعة الإرهابيين الذين حاولوا اغتياله، لذلك يقرر مجلس الوزراء أن يعهد له بالتحقيق
في جريمة تزوير الروبية التي تفجرت أخيرا، وفي أثناء عمله يتورط في جريمة قتل واغتصاب
الابنة الوحيدة لمفتش الشرطة الشريف (مازوماد) فهل تثبت عليه التهمة ام يثبت برائته؟


 2 arabp2p.com

 3 arabp2p.com

 4 arabp2p.com
General
Baazi 1995  DVDRip XviD by.nemr23.mp4
Format                      : MPEG-4
Format profile              : Base Media
Codec ID                    : isom (isom/iso2/mp41)
File size                   : 1.21 GiB
Duration                    : 3 h 7 min
Overall bit rate mode       : Variable
Overall bit rate            : 926 kb/s
Writing application         : Lavf55.37.101

Video
ID                          : 1
Format                      : HEVC
Format/Info                 : High Efficiency Video Coding
Format profile              : Main@L4@Main
Codec ID                    : hev1
Codec ID/Info               : High Efficiency Video Coding
Duration                    : 3 h 7 min
Bit rate                    : 768 kb/s
Width                       : 1 920 pixels
Height                      : 1 080 pixels
Display aspect ratio        : 16:9
Frame rate mode             : Constant
Frame rate                  : 23.976 (24000/1001) FPS
Color space                 : YUV
Chroma subsampling          : 4:2:0
Bit depth                   : 8 bits
Scan type                   : Progressive
Bits/(Pixel*Frame)          : 0.015
Stream size                 : 1.00 GiB (83%)
Codec configuration box     : hvcC

Audio
ID                          : 2
Format                      : AAC
Format/Info                 : Advanced Audio Codec
Format profile              : LC
Codec ID                    : mp4a-40-2
Duration                    : 3 h 7 min
Duration_LastFrame          : -14 ms
Bit rate mode               : Variable
Bit rate                    : 152 kb/s
Maximum bit rate            : 320 kb/s
Channel(s)                  : 2 channels
Channel positions           : Front: L R
Sampling rate               : 44.1 kHz
Frame rate                  : 43.066 FPS (1024 SPF)
Compression mode            : Lossy
Stream size                 : 203 MiB (16%)
Default                     : Yes
Alternate group             : 1


 5 arabp2p.com

 6 arabp2p.com

 7 arabp2p.com

 8 arabp2p.com

 9 arabp2p.com

 10 arabp2p.com

 11 arabp2p.com

 12 arabp2p.com

 13 arabp2p.com

 14 arabp2p.com

 15 arabp2p.com

 16 arabp2p.com

 17 arabp2p.com

الملفات ذات العلاقة بـ ( Baazi 1995 مترجم DVDRip أكشن وجريمة عامر خان )
Kaalia 1981 hd مترجم أكشن وجريمة. لأميتاب وأمجد خان 4 0 4.20 GB
Hatya 1988 مترجم DVDRip أكشن وجريمة جوفندا ونيلام 1 0 1.76 GB
Ishq 1997 مترجم DvDRip 720p رومانسى كوميدى عامر خان واجاى ديفجان 1 0 2.79 GB
Secret Superstar 2017 مترجم موسيقى عائلى عامر خان وزايرا وسيم 1 0 1.58 GB
Raid 2018 مترجم 1080p Bluray أكشن وجريمة أجاى ديفجان 2 0 3.04 GB
lady-leenكلا يا صديقي ليس هناك داعٍ للإعتذار بين الأصدقاء
nemr23 السلام عليكم فيلم بازي من أروع أفلام عامر خان وعلى فكرة الفيلم لم يعرض على أي قناة من القنوات المتخصصة بعرض الأفلام الهندية لقد أستمتعت كثيراً لكوني قمت بضط توقيت الترجمة على نسخة 1CD ومراجعتها ... جزيل الشكر العرفان لك يا صديقي والشكر موصول للمترجم ســــــــــــــــلام اهلا بيك اخى الغالى دائما يسعدنى مرورك فعلا لم يعرض الفيلم على اى قناة كل الشكر على تعديلك التوقيت ليناسب النسخة واسف لم انتبه لذلك
lady-leenالسلام عليكم فيلم بازي من أروع أفلام عامر خان وعلى فكرة الفيلم لم يعرض على أي قناة من القنوات المتخصصة بعرض الأفلام الهندية لقد أستمتعت كثيراً لكوني قمت بضط توقيت الترجمة على نسخة 1CD ومراجعتها ... جزيل الشكر العرفان لك يا صديقي والشكر موصول للمترجم ســــــــــــــــلام

الرئيسية - قائمة ملفات التورنت - فيسبوك