انقر هنا لمشاهدة النسخة الكاملة للصفحة

تورنت - فيلم فرنسي (الحريق) Incendies.2010.720p

افلام اجنبيه الحجم : 3.37 GB التراكر: خارجي المتصلين : 0,6  اكتمل ( 7 ) 12/02/2019 تحميل التورنت


مجموعة الأفلام الناطقة بغير الإنجليزية
[Amazing Foreign Movies]
[AFM]
سأرصد في هذه المجموعه أشهر الأفلام الغير ناطقة باللغة الانجليزيه
والتي رصدت العديد من الجوائز
أفلام أوروبية وآسيوية وغيرها
وتركت أثراً قوياً لمواضيعها الإجتماعية المميزة
-------------------------------------------------
12
-------------------------------------------------
Incendies.2010
الحريق

غلاف الفيلم
 1 arabp2p.com

رحلة توأم إلى الشرق الأوسط للبحث عن جذور عائلتهما
تنفيذا لوصية أمهما
رحلة تتخللها المصاعب والمفاجأت
قصة ذات حبكة مدهشة
فيلم لن تنساه
إن أردت فيلماً ذو حبكة درامية مقفله فهذا الفيلم لك
وإن أردت فيلماً تختلط فيه أحداث الواقع مع خيال مطلق فهذا لك
وإن أردت المفاجأه في آخر الأحداث فهذا سيصدمك
---------
ترتيبه رقم 128 في قائمة أفضل الأفلام
فاز بعدة جوائز وتقييمه 8.2

للفيلم تسعة ترجمات في مجلد الترجمة
والترجمة العربية في الجذر الرئيسي المصاحب للفيلم

روابط
https://en.wikipedia.org/wiki/Incendies
https://www.imdb.com/title/tt1255953/
لقطات من الفيلم
 2 arabp2p.com
 3 arabp2p.com
 4 arabp2p.com
 5 arabp2p.com
 6 arabp2p.com
 7 arabp2p.com

مواصفات الفيلم
Format                      : Matroska
Format version              : Version 2
File size                   : 3.36 GiB
Duration                    : 2 h 10 min
Overall bit rate            : 3 692 kb/s
Encoded date                : UTC 2011-09-11 13:39:32
Writing application         : mkvmerge v4.9.1 ('Ich will') built on Jul 11 2011 23:53:15
Writing library             : libebml v1.2.1 + libmatroska v1.1.1

Video
ID                          : 1
Format                      : AVC
Format/Info                 : Advanced Video Codec
Format profile              : High@L3.1
Format settings             : CABAC / 4 Ref Frames
Format settings, CABAC      : Yes
Format settings, ReFrames   : 4 frames
Codec ID                    : V_MPEG4/ISO/AVC
Duration                    : 2 h 10 min
Bit rate                    : 3 051 kb/s
Width                       : 1 280 pixels
Height                      : 688 pixels
Display aspect ratio        : 1.85:1
Frame rate mode             : Constant
Frame rate                  : 23.976 (24000/1001) FPS
Color space                 : YUV
Chroma subsampling          : 4:2:0
Bit depth                   : 8 bits
Scan type                   : Progressive
Bits/(Pixel*Frame)          : 0.144
Stream size                 : 2.71 GiB (81%)
Writing library             : x264 core 116 r2074 2641b9e
Encoding settings           : cabac=1 / ref=3 / deblock=1:0:0 / *censored*yse=0x3:0x111 / me=hex / subme=7 / psy=1 / psy_rd=1.00:0.00 / mixed_ref=1 / me_range=16 / chroma_me=1 / trellis=1 / 8x8dct=1 / cqm=0 / deadzone=21,11 / fast_pskip=1 / chroma_qp_offset=-2 / threads=3 / sliced_threads=0 / nr=0 / decimate=1 / interlaced=0 / bluray_compat=0 / constrained_intra=0 / bframes=3 / b_pyramid=2 / b_adapt=1 / b_bias=0 / direct=1 / weightb=1 / open_gop=0 / weightp=2 / keyint=250 / keyint_min=23 / scenecut=40 / intra_refresh=0 / rc_lookahead=40 / rc=2pass / mbtree=1 / bitrate=3051 / ratetol=1.0 / qcomp=0.60 / qpmin=0 / qpmax=69 / qpstep=4 / cplxblur=20.0 / qblur=0.5 / ip_ratio=1.40 / aq=1:1.00
Language                    : English
Default                     : Yes
Forced                      : No

Audio
ID                          : 2
Format                      : AC-3
Format/Info                 : Audio Coding 3
Commercial name             : Dolby Digital
Codec ID                    : A_AC3
Duration                    : 2 h 10 min
Bit rate mode               : Constant
Bit rate                    : 640 kb/s
Channel(s)                  : 6 channels
Channel layout              : L R C LFE Ls Rs
Sampling rate               : 48.0 kHz
Frame rate                  : 31.250 FPS (1536 SPF)
Bit depth                   : 16 bits
Compression mode            : Lossy
Stream size                 : 597 MiB (17%)
Language                    : French
Service kind                : Complete Main
Default                     : Yes
Forced                      : No


الملفات ذات العلاقة بـ ( فيلم فرنسي (الحريق) Incendies.2010.720p )
فيلم فرنسي - (From the Land of the Moon (2016 4 2 549.81 MB
فيلم (الملاك) Angel-A فرنسي 2005 مترجم 7 1 4.37 GB
فيلم (مارجريت) فرنسي Marguerite (2015) مترجم 1 0 612.56 MB
فيلم فرنسي قصير (البالونة الحمراء) The Red Balloon (1956) 9 2 1.72 GB
فيلم الاثارة والتشويق Non Stop 2014 BRRIP مترجم (عربي - انجليزي - فرنسي - اسباني) 6 0 822.99 MB
re2meيااا سلام عليك اتابع مشاركتك بصمت وكل قصة فلم اروع من الاخرى استمر بانتظار المزيد
s4e3e7o0هذا الفلم كنت شايفه من قبل وهو فعلا فلم رائع ويشدك لاخر لحظه فيه انصح بمشاهدته استمر فختياراتك موفقه
underworldيعطيك العافية

الرئيسية - قائمة ملفات التورنت - فيسبوك