انقر هنا لمشاهدة النسخة الكاملة للصفحة

تورنت - Baabul.2006 مترجم DVDRip - Xvid أميتاب وسلمان خان

افلام هنديه الحجم : 1.84 GB التراكر: داخلي المتصلين : 0,4  اكتمل ( 33 ) 13/01/2019 تحميل التورنت

 1 arabp2p.com






الفيلم الدرامى المتميز

Baabul 2006
(ضد التقاليد)


بطولة
الأسطورة أميتاب
سلمان خان
هيما مالينى
رانى ميكارجى
جون ابراهام

ألف شكر للمترجم
F T W

نسخة مترجمة DVDRip - Xvid بمساحة 1.83 جيجا

قصة الفيلم
يناقش الفيلم قضية شائكة فى المجتمع الهندى وهى منع زواج الأرملة مرة اخرى
تدور الاحداث حول بلراج كابور (اميتاب) وصداقته القوية بأبنه افيناش (سلمان)
الذى يقع فى حب ميلا (رانى ميكارجى) ويتزوجها لكن يموت فى حادث تاركا ابنه
وزوجته وبالرغم حزن بلراج الشديد على ابنه يقرر دفعها للزواج مرة اخرى متحديا
العادة الظالمة للمرأة رغم اعتراض عائلته ومجتمعه فهل ينجح؟


 2 arabp2p.com

 3 arabp2p.com

 4 arabp2p.com
General
Baabul.2006-DVDRip - Xvid -by.nemr23.mp4
Format                      : MPEG-4
Format profile              : Base Media
Codec ID                    : isom (isom/iso2/mp41)
File size                   : 1.84 GiB
Duration                    : 2 h 48 min
Overall bit rate            : 1 558 kb/s
Writing application         : Lavf56.15.100

Video
ID                          : 1
Format                      : HEVC
Format/Info                 : High Efficiency Video Coding
Format profile              : Main@L4@Main
Codec ID                    : hev1
Codec ID/Info               : High Efficiency Video Coding
Duration                    : 2 h 48 min
Bit rate                    : 1 230 kb/s
Width                       : 1 920 pixels
Height                      : 1 080 pixels
Display aspect ratio        : 16:9
Frame rate mode             : Variable
Frame rate                  : 23.976 FPS
Minimum frame rate          : 23.976 FPS
Maximum frame rate          : 33.831 FPS
Color space                 : YUV
Chroma subsampling          : 4:2:0
Bit depth                   : 8 bits
Scan type                   : Progressive
Bits/(Pixel*Frame)          : 0.025
Stream size                 : 1.45 GiB (79%)
Writing library             : x265 1.4:[Windows][GCC 4.9.2][32 bit]
Encoding settings           : wpp / ctu=32 / tu-intra-depth=1 / tu-inter-depth=1 / me=0 / subme=0 / merange=25 / no-rect / no-amp / max-merge=2 / temporal-mvp / early-skip / no-fast-cbf / rdpenalty=0 / no-tskip / no-tskip-fast / strong-intra-smoothing / no-lossless / no-cu-lossless / no-constrained-intra / fast-intra / open-gop / interlace=0 / keyint=250 / min-keyint=23 / scenecut=0 / rc-lookahead=10 / bframes=4 / bframe-bias=0 / b-adapt=0 / ref=1 / no-weightp / no-weightb / aq-mode=0 / aq-strength=0.00 / cbqpoffs=0 / crqpoffs=0 / rd=2 / psy-rd=0.00 / psy-rdoq=0.00 / no-signhide / no-lft / no-sao / no-sao-non-deblock / b-pyramid / no-cutree / rc=crf / crf=28.0 / qcomp=0.60 / qpmin=0 / qpmax=51 / qpstep=4 / ipratio=1.40 / pbratio=1.30
Codec configuration box     : hvcC

Audio
ID                          : 2
Format                      : AAC
Format/Info                 : Advanced Audio Codec
Format profile              : LC
Codec ID                    : mp4a-40-2
Duration                    : 2 h 48 min
Bit rate mode               : Constant
Bit rate                    : 322 kb/s
Channel(s)                  : 2 channels
Channel positions           : Front: L R
Sampling rate               : 44.1 kHz
Frame rate                  : 43.066 FPS (1024 SPF)
Compression mode            : Lossy
Stream size                 : 388 MiB (21%)
Default                     : Yes
Alternate group             : 1


 5 arabp2p.com

 6 arabp2p.com

 7 arabp2p.com

 8 arabp2p.com

 9 arabp2p.com

 10 arabp2p.com

 11 arabp2p.com

 12 arabp2p.com

 13 arabp2p.com

 14 arabp2p.com

 15 arabp2p.com

 16 arabp2p.com

 17 arabp2p.com

الملفات ذات العلاقة بـ ( Baabul.2006 مترجم DVDRip - Xvid أميتاب وسلمان خان )
Thugs of Hindostan.2018 مترجم 1080p أكشن ومغامرات أميتاب وعامر خان 5 0 4.16 GB
Mohabbatein 2000,tv مترجم mkv للثنائى الاروع أميتاب بتشان&شاروخ خان 2 0 2.85 GB
Trishul 1978 مترجم DvDRip.XviD أميتاب وسانجيف كومار 2 0 1.27 GB
Tubelight 2017 مترجم ts حربى درامى سلمان خان وسهيل خان 1 0 3.31 GB
Shakti 1982 مترجم DVDRip درامى أكشن أميتاب ودليب كومار 2 0 2.60 GB
nemr23 ’’جزاك الله خيراً‘‘ تسلم اخى الغالى نورت الموضوع
Lorans’’جزاك الله خيراً‘‘
nemr23 عمل مميز تشكر يا صديقي وجزاك الله كل خير بالتوفيق في أعمالك القادمة تسلم اخى الغالى ودائما يسعدنى مرورك
lady-leenعمل مميز تشكر يا صديقي وجزاك الله كل خير بالتوفيق في أعمالك القادمة
nemr23 http://www.arabp2p.com/gifs/thanks1b.gif نورت الموضوع
Hokagehttp://www.arabp2p.com/gifs/thanks1b.gif

الرئيسية - قائمة ملفات التورنت - فيسبوك