انقر هنا لمشاهدة النسخة الكاملة للصفحة

[تورنت] - [هروب اضطراري][2017][HDTV]

افلام عربيه الحجم : 2.28 GB التراكر: داخلي المتصلين : 0,6  اكتمل ( 578 ) 22/07/2018 تحميل التورنت


هروب اضطراري
اخراج: أحمد خالد موسى
تمثيل: أحمد السقا,غادة عادل,أمير كرارة,فتحي عبدالوهاب,مصطفى خاطر,أحمد العوضي

 1 arabp2p.com

يسرني أن أقدم لكم:

" هروب اضطراري (جودة 1080p) "

 2 arabp2p.com

 3 arabp2p.com

تدور أحداث الفيلم حول جريمة قتل يروح ضحيتها رجل أعمال يُدعى يحيى زكريا (محمد فراج) و يتهم فيها أربعة أشخاص وهم أدهم محمد عوض عزمي (أحمد السقا) ومصطفى مختار محمد إبراهيم (أمير كرارة) ويوسف محمد عثمان السيد (مصطفى خاطر) وندى رمزي فؤاد الرملي (غادة عادل) وتبدأ الأحداث في التصاعد حيث يحاول كلُ شخص إثبات براءته من التهمة المنسوبة إليه.


 4 arabp2p.com

حاوية الملف: MP4
أبعاد الشاشة: 1912x800
كوديك الضغط: x264
حاوية الصوت: AAC


المعلومات التقنية:


Code
Complete name               : C:Usersd3ibisDesktop- Movies -- Arabic -Forced.Escape.HDTV.1080p-d3ibisForced.Escape.HDTV.1080p-d3ibis.mp4
Format                      : MPEG-4
Format profile              : Base Media / Version 2
Codec ID                    : mp42 (mp42/mp41)
File size                   : 2.27 GiB
Duration                    : 1 h 44 min
Overall bit rate mode       : Variable
Overall bit rate            : 3 112 kb/s
Movie name                  : Forced.Escape.HDTV.1080p-d3ibis
Genre                       : Action
ContentType                 : Short Film
Description                 : تدور أحداث الفيلم حول جريمة قتل يروح ضحيتها رجل أعمال يُدعى يحيى زكريا (محمد فراج) و يتهم فيها أربعة أشخاص وهم أدهم محمد عوض عزمي (أحمد السقا) ومصطفى مختار محمد إبراهيم (أمير كرارة) ويوسف محمد عثمان السيد (مصطفى خاطر) وندى رمزي فؤاد الرملي (غادة عادل) وتبدأ الأحداث في التصاعد حيث يحاول كلُ شخص إثبات براءته من التهمة المنسوبة إليه.
Encoded date                : UTC 2018-07-22 10:06:32
Tagged date                 : UTC 2018-07-22 11:00:57
Copyright                   : www.ArabP2P.com
Cover                       : Yes
Xtra                        : WM/SharedUserRating
LongDescription             : تدور أحداث الفيلم حول جريمة قتل يروح ضحيتها رجل أعمال يُدعى يحيى زكريا (محمد فراج) و يتهم فيها أربعة أشخاص وهم أدهم محمد عوض عزمي (أحمد السقا) ومصطفى مختار محمد إبراهيم (أمير كرارة) ويوسف محمد عثمان السيد (مصطفى خاطر) وندى رمزي فؤاد الرملي (غادة عادل) وتبدأ الأحداث في التصاعد حيث يحاول كلُ شخص إثبات براءته من التهمة المنسوبة إليه.

Video
ID                          : 1
Format                      : AVC
Format/Info                 : Advanced Video Codec
Format profile              : Main@L4.1
Format settings             : CABAC / 4 Ref Frames
Format settings, CABAC      : Yes
Format settings, ReFrames   : 4 frames
Codec ID                    : avc1
Codec ID/Info               : Advanced Video Coding
Duration                    : 1 h 44 min
Bit rate                    : 2 787 kb/s
Width                       : 1 912 pixels
Height                      : 800 pixels
Display aspect ratio        : 2.40:1
Frame rate mode             : Constant
Frame rate                  : 25.000 FPS
Standard                    : PAL
Color space                 : YUV
Chroma subsampling          : 4:2:0
Bit depth                   : 8 bits
Scan type                   : Progressive
Bits/(Pixel*Frame)          : 0.073
Stream size                 : 2.04 GiB (90%)
Language                    : English
Encoded date                : UTC 2018-07-22 10:06:32
Tagged date                 : UTC 2018-07-22 10:55:36
Color range                 : Limited
Color primaries             : BT.709
Transfer characteristics    : BT.709
Matrix coefficients         : BT.709
Menus                       : 3

Audio
ID                          : 2
Format                      : AAC
Format/Info                 : Advanced Audio Codec
Format profile              : LC
Codec ID                    : mp4a-40-2
Duration                    : 1 h 44 min
Bit rate mode               : Variable
Bit rate                    : 317 kb/s
Maximum bit rate            : 414 kb/s
Channel(s)                  : 2 channels
Channel positions           : Front: L R
Sampling rate               : 48.0 kHz
Frame rate                  : 46.875 FPS (1024 SPF)
Compression mode            : Lossy
Stream size                 : 237 MiB (10%)
Language                    : Arabic
Encoded date                : UTC 2018-07-22 10:06:32
Tagged date                 : UTC 2018-07-22 10:55:36



 5 arabp2p.com

 6 arabp2p.com

 7 arabp2p.com

 8 arabp2p.com

 9 arabp2p.com

 10 arabp2p.com


أتمنى أن ينال العمل إعجابكم ♥

المصدر: معتمد


أخوكم، أبو المزن

الملفات ذات العلاقة بـ ( هروب اضطراري )
[هروب اضطراري][2017][Web-DL] 14 0 3.39 GB
[هروب مومياء][2003][Web-DL] 3 0 1.93 GB
ABDULMONEMالف الف شكر تحياتي
mohamed13300https://www7.0zz0.com/2019/08/19/21/472522629.gif
bacem-laraشكرا من القلب
Loransشكراً:thumbsup:
hatem_9324شكرا
zin123شكرا لك اخي ابوالمزن . واضافة تشكر عليها .
MosDos رجاءً بس تحضره ترجع تكتب تعليق بخصوص الجودة و الحقوق الجودة ممتازة بالتأكيد (بس أكيد من غير Re-Encoding لكانت أفضل :)) أما بالنسبة للحقوق فهي غير مزعجة البتة. شكراً على الإضافة المميزة!
mkhyشكرا لهذا الانجاز
هرهورhttp://www.arabp2p.com/gifs/thanks1b.gif
MosDos شكراً جزيلاً لك أخي أبي المزن لطالما بحثت عن جودة جيدة لهذا الفيلم دون جدوى أرسلت لك 5000 نقطة كتقدير بسيط عن امتناني :) كده ناقص فيلم "الخلية" :D شكراً لك عزيزي ♡ فيلم الخلية شغال عليه، بس مافي تطورات مع العلم بأنه الـ٤ افلام اللي رفعتهم تم شراؤهم او استئجارهم (: تم وضع حقوق على كل فيلم بشكل لا يتم مضايقة متابع الفيلم تماماً شكراً لك مرة اخرى ♡ رجاءً بس تحضره ترجع تكتب تعليق بخصوص الجودة و الحقوق إن شاء الله أخي شكراً لك مرة اخرى!
d3ibis شكراً جزيلاً لك أخي أبي المزن لطالما بحثت عن جودة جيدة لهذا الفيلم دون جدوى أرسلت لك 5000 نقطة كتقدير بسيط عن امتناني :) كده ناقص فيلم "الخلية" :D شكراً لك عزيزي ♡ فيلم الخلية شغال عليه، بس مافي تطورات مع العلم بأنه الـ٤ افلام اللي رفعتهم تم شراؤهم او استئجارهم (: تم وضع حقوق على كل فيلم بشكل لا يتم مضايقة متابع الفيلم تماماً شكراً لك مرة اخرى ♡ رجاءً بس تحضره ترجع تكتب تعليق بخصوص الجودة و الحقوق
MosDosشكراً جزيلاً لك أخي أبي المزن لطالما بحثت عن جودة جيدة لهذا الفيلم دون جدوى أرسلت لك 5000 نقطة كتقدير بسيط عن امتناني :) كده ناقص فيلم "الخلية" :D

الرئيسية - قائمة ملفات التورنت - فيسبوك