انقر هنا لمشاهدة النسخة الكاملة للصفحة

تورنت - [Pokémon [S1] Indigo League [NETFLIX-1080p - مدبلج

مسلسلات الحجم : 32.17 GB التراكر: داخلي المتصلين : 0,2  اكتمل ( 176 ) 08/07/2018 تحميل التورنت

Pokémon: Indigo League

 1 arabp2p.com

 2 arabp2p.com

الاسم : Pokémon: Indigo League
الموسم : الاول
عدد الحلقات : 52 حلقة
تاريخ الانتاج : 1997 ‎
النوع : مغامرات - أكشن - كوميديا
مدة الحلقة: 23 دقيقة تقريبا
الفئة العمرية: +7
نسخة : نتفليكس
الدبلجة : العربية - الانجليزىه
الترجمة : العربية
الجودة : 1080p
الحاوية : mkv


Code

Audio #1
ID                               : 2
Format                           : E-AC-3
Format/Info                      : Audio Coding 3
Codec ID                         : A_EAC3
Duration                         : 22mn 23s
Bit rate mode                    : Constant
Bit rate                         : 128 Kbps
Channel(s)                       : 2 channels
Channel positions                : Front: L R
Sampling rate                    : 48.0 KHz
Compression mode                 : Lossy
Stream size                      : 20.5 MiB (3%)
Title                            : English
Language                         : English

Audio #2
ID                               : 3
Format                           : E-AC-3
Format/Info                      : Audio Coding 3
Codec ID                         : A_EAC3
Duration                         : 22mn 23s
Bit rate mode                    : Constant
Bit rate                         : 128 Kbps
Channel(s)                       : 2 channels
Channel positions                : Front: L R
Sampling rate                    : 48.0 KHz
Compression mode                 : Lossy
Stream size                      : 20.5 MiB (3%)
Title                            : Arabic
Language                         : Arabic

Text #1
ID                               : 4
Format                           : UTF-8
Codec ID                         : S_TEXT/UTF8
Codec ID/Info                    : UTF-8 Plain Text
Title                            : Arabic [Forced]
Language                         : Arabic

Text #2
ID                               : 5
Format                           : UTF-8
Codec ID                         : S_TEXT/UTF8
Codec ID/Info                    : UTF-8 Plain Text
Title                            : Arabic [SDH]
Language                         : Arabic



 3 arabp2p.com

في سعيه لأن يصبح مدرب بوكيمون أسطوري، ينطلق "آش" في رحلة ممتعة مع أصدقائه الجدد: "ميستي" الوقحة و "بروك" مربي البوكيمون الطموح.

 4 arabp2p.com

 5 arabp2p.com

 6 arabp2p.com

 7 arabp2p.com

الملفات ذات العلاقة بـ ( [Pokémon [S1] Indigo League [NETFLIX-1080p - مدبلج )
بوكيمون [مدبلج][Pokemon[S01][1080p-HEVC x265 3 0 10.51 GB
Pokemon Season 3 DVD Full 52 بوكيمون الجزء الثالث مدبلج عربي 1 0 11.23 GB
[Glitter Force [S1+S2] [NETFLIX-1080P - مدبلج 1 0 37.69 GB
[Motown Magic [NETFLIX-1080p مدبلج 1 0 16.26 GB
المرتبكون The Hollow [م 1][2018][مدبلج][NETFLIX 1080P] 4 0 3.01 GB
ramahttp://www.ibtesama.com/vb/imgcache2/8668.gif شكــــــرا جزيـــلا يعطيك ألــــف عـــــــافية استمــــــر حفظك الله ورعاك ^^
jobaofjordanألف شكر وبإنتظار باقي الأجزاء
anamالف الف شكر على المجهود والحلقات بجودة عالية اتمنى الاستمرار ببقية الاجزاء وشكرا لك ..
aseefأأأأأألفففففففففففففففففففف ششششششكككككككككرررررررررررررررررررر وتتتتتسلموااااااااااا لي على المجهود
alaagoodxرائع فعلا نت فيلكس ابدعت و انتظر على خير بقية الاجزاء و شكرا .
بومصعب2015الف شكر جاري التحميل
Akthamجزاك الله كل خير ، شكرًا لك من كل قلبي و الله ، يعطيك العافية ، بانتظار مزيدك و متابعين تحيتي ,
jametenشكرا لك
حكة حكةإيييييه أيام الشطانة ههههههه ألف شكر لك وجاري التحميل والمشاهدة واسترجاع الذكريات الحلوة الله يعطيك العافية
RAWLEGENDتسلم يدك عزيزي... عمل رائع واغلبنا له ذكريات جميلة مع هذا الموسم النسخة شفتها من قبل وهي افضل نسخة بلا منازع
asebtin09عمل رائع بارك الله فيك
srmdnadems شكرًا جزيلًا لك على العمل الرائع. هل هذه هي نفس النسخة التي كانت تعرض على سبيستون قديمًا قبل أن يتوقفوا؟ لأني أرى S1 بمعنى أنه البداية. أرجو أن يكملوا جميع حلقاته. وعليكم السلام لا اعرف اذ كانت النسخة التى تعرض ع spacetoon ام لا بس عمتا الاصدار ده هو 52 حلقة فقط هذه نسخة النتفلكس غير المقطعة ... هنالك بعض الحلقات المحرفة من قبل الزهرة ... فأستعاضت عنهم نتفلكس بدوبلاج غير دوبلاج الزهرة .... نتمنى ان تقوم نتفلكس بدبلجة كل المسلسل لكن لااعتقد
Abraham شكرًا جزيلًا لك على العمل الرائع. هل هذه هي نفس النسخة التي كانت تعرض على سبيستون قديمًا قبل أن يتوقفوا؟ لأني أرى S1 بمعنى أنه البداية. أرجو أن يكملوا جميع حلقاته. وعليكم السلام لا اعرف اذ كانت النسخة التى تعرض ع spacetoon ام لا بس عمتا الاصدار ده هو 52 حلقة فقط
Abu3safeerشكرًا جزيلًا لك على العمل الرائع. هل هذه هي نفس النسخة التي كانت تعرض على سبيستون قديمًا قبل أن يتوقفوا؟ لأني أرى S1 بمعنى أنه البداية. أرجو أن يكملوا جميع حلقاته.
هرهورhttp://www.arabp2p.com/gifs/thanks1b.gif
BHHDشكراً

الرئيسية - قائمة ملفات التورنت - فيسبوك