انقر هنا لمشاهدة النسخة الكاملة للصفحة

تورنت - Supergirl Season 4 [2019] [WEBRip] 720p

مسلسلات وبرامج اجنبيه الحجم : 28.05 GB التراكر: خارجي المتصلين : 12,10  اكتمل ( 6229 ) 07/10/2019 تحميل التورنت


 1 arabp2p.com

Supergirl Season 4 [2019] [WEBRip] 720p

 2 arabp2p.com

INFO

Video
ID : 1
Format : AVC
Format/Info : Advanced Video Codec
Format profile : High@L3.1
Format settings : CABAC / 4 Ref Frames
Format settings, CABAC : Yes
Format settings, ReFrames : 4 frames
Codec ID : V_MPEG4/ISO/AVC
Duration : 42 min 19 s
Bit rate mode : Constant
Bit rate : 5 476 kb/s
Nominal bit rate : 6 000 kb/s
Width : 1 280 pixels
Height : 720 pixels
Display aspect ratio : 16:9
Frame rate mode : Constant
Frame rate : 23.976 (24000/1001) FPS
Color space : YUV
Chroma subsampling : 4:2:0
Bit depth : 8 bits
Scan type : Progressive
Bits/(Pixel*Frame) : 0.248
Stream size : 1.62 GiB (90%)
Default : Yes
Forced : No
Color range : Limited
Color primaries : BT.709
Transfer characteristics : BT.709
Matrix coefficients : BT.709

Audio
ID : 2
Format : E-AC-3
Format/Info : Enhanced AC-3
Commercial name : Dolby Digital Plus
Codec ID : A_EAC3
Duration : 42 min 19 s
Bit rate mode : Constant
Bit rate : 640 kb/s
Channel(s) : 6 channels
Channel layout : L R C LFE Ls Rs
Sampling rate : 48.0 kHz
Frame rate : 31.250 FPS (1536 SPF)
Compression mode : Lossy
Stream size : 194 MiB (10%)
Language : English
Service kind : Complete Main
Default : Yes
Forced : No


 3 arabp2p.com

 4 arabp2p.com
 5 arabp2p.com
 6 arabp2p.com

الملفات ذات العلاقة بـ ( Supergirl Season 4 [2019] [WEBRip] 720p )
Game of Thrones Season 8 [2019] [WEB-DL] 720p 20 7 4.99 GB
La Casa de Papel Season 3 [2019] [WEB-DL] 1080p 142 31 13.55 GB
الحلقة 1 مسلسل Supergirl S01E01 42 12 965.07 MB
الحلقة 3 مسلسل Supergirl S01E03 26 5 897.65 MB
الحلقة 4 مسلسل Supergirl S01E04 26 9 895.65 MB
underworldمشاركة جميلة يعطيك العافية

الرئيسية - قائمة ملفات التورنت - فيسبوك