انقر هنا لمشاهدة النسخة الكاملة للصفحة

[تورنت] - [Elwad mahrous betaa alwazir 1999 HD 720p DVB][1999][HDTV]

افلام عربيه الحجم : 5.71 GB التراكر: داخلي المتصلين : 1,20  اكتمل ( 58 ) 15/09/2020 تحميل التورنت


Elwad mahrous betaa alwazir 1999 HD 720p DVB
اخراج: نادر جلال
تمثيل: عادل إمام كمال الشناوي وفاء عامر أسامة عباس ألفت إمام عايدة عبدالعزيز

 1 arabp2p.com

يسرنى أن أقدم لكم الفيلم العربي
الواد محروس بتاع الوزير- 1999


 2 arabp2p.com


معلومات عن الفيلم


 3 arabp2p.com
 4 arabp2p.com
 5 arabp2p.com
 6 arabp2p.com
 7 arabp2p.com
 8 arabp2p.com
 9 arabp2p.com
 10 arabp2p.com
 11 arabp2p.com
 12 arabp2p.com
 13 arabp2p.com


 14 arabp2p.com


Format                                   : Matroska
Format version                           : Version 4
File size                                : 5.71 GiB
Duration                                 : 1 h 40 min
Overall bit rate mode                    : Variable
Overall bit rate                         : 8 166 kb/s
Encoded date                             : UTC 2019-07-25 22:41:06
Writing application                      : HD MATV Systems DVB-S2 Satellite
Writing library                          : TeleDelta HDS2800

Video
ID                                       : 1
Format                                   : MPEG Video
Commercial name                          : HDV 720p
Format version                           : Version 2
Format profile                           : Main@High 1440
Format settings, BVOP                    : No
Format settings, Matrix                  : Default
Format settings, GOP                     : N=12
Codec ID                                 : V_MPEG2
Codec ID/Info                            : MPEG 1 or 2 Video
Duration                                 : 1 h 40 min
Bit rate mode                            : Variable
Bit rate                                 : 7 780 kb/s
Width                                    : 1 280 pixels
Height                                   : 720 pixels
Display aspect ratio                     : 16:10
Original display aspect ratio            : 16:9
Frame rate mode                          : Constant
Frame rate                               : 29.970 (30000/1001) FPS
Color space                              : YUV
Chroma subsampling                       : 4:2:0
Bit depth                                : 8 bits
Scan type                                : Progressive
Compression mode                         : Lossy
Bits/(Pixel*Frame)                       : 0.282
Time code of first frame                 : 00:00:00:00
Time code source                         : Group of pictures header
GOP, Open/Closed                         : Closed
Stream size                              : 5.44 GiB (95%)
Language                                 : Arabic
Default                                  : Yes
Forced                                   : No
Duration_Source                          : General_Duration

Audio
ID                                       : 2
Format                                   : AC-3
Format/Info                              : Audio Coding 3
Commercial name                          : Dolby Digital
Codec ID                                 : A_AC3
Duration                                 : 1 h 40 min
Bit rate mode                            : Constant
Bit rate                                 : 224 kb/s
Channel(s)                               : 2 channels
Channel layout                           : L R
Sampling rate                            : 44.1 kHz
Frame rate                               : 28.711 FPS (1536 SPF)
Compression mode                         : Lossy
Stream size                              : 160 MiB (3%)
Language                                 : Arabic
Service kind                             : Complete Main
Default                                  : Yes
Forced                                   : No
Duration_Source                          : General_Duration

Menu
00:00:00.000                             : ar:alWad Mahrous Btaa Al Wazir 1999-osn / :pop up HD
00:20:00.000                             : :Chapter 02
00:40:00.000                             : :Chapter 03
01:00:00.000                             : :Chapter 04
01:20:00.000                             : :Chapter 05











 15 arabp2p.com

الملفات ذات العلاقة بـ ( Elwad mahrous betaa alwazir 1999 HD 720p DVB )
[Shams elzanaty (1991) HD 720p DVB][1991][HDTV] 9 1 4.86 GB
[Salam Ya Sahby (1986) HD 720p DVB][1986][HDTV] 9 0 5.02 GB
[بليه ودماغه العالية][2000][Web-DL] 21 1 3.58 GB
[بطل من ورق][1988] 18 2 3.18 GB
[جزيرة الشيطان][1990][HDTV] 12 0 1.83 GB
Modyy2020شكرا جزيلا لك
Maldinyشكرا يا ورد

الرئيسية - قائمة ملفات التورنت - فيسبوك