انقر هنا لمشاهدة النسخة الكاملة للصفحة

تورنت - المسرحية الكوميدية (سيدتي الجميلة 1969) فؤاد المهندس وشويكار

مسرحيات الحجم : 3.67 GB التراكر: داخلي المتصلين : 1,0  اكتمل ( 41 ) 19/10/2017 تحميل التورنت

 1 arabp2p.com






المسرحية الكوميدية الأروع

سيدتي الجميلة 1969

بطولة
العملاق فؤاد المهندس
شويكار
حسن مصطفى
جمال أسماعيل
نظيم شعراوى

قصة المسرحية
تدور أحداث المسرحية حول كمال (فؤاد المهندس) الذي يبحث عن امرأة جميلة ليريها للملك،
فتسرقه نشالة وهي (شويكار) فيعجب بشخصيتها المتوحشة ويأخذها ليعلمها آداب الإتيكيت،
ويعلمها كيفية التصرف مع الملك.

   
نسخة mp4 720p بمساحة 3.67 جيجا

المصدر شاهد نت

 2 arabp2p.com

 3 arabp2p.com

 4 arabp2p.com
General
سيدتى الجميلة ,by.nemr23.mp4
Format                                   : MPEG-4
Format profile                           : Base Media
Codec ID                                 : isom
File size                                : 3.67 GiB
Duration                                 : 3h 38mn
Overall bit rate mode                    : Variable
Overall bit rate                         : 2 403 Kbps
Writing application                      : Lavf55.33.100

Video
ID                                       : 1
Format                                   : AVC
Format/Info                              : Advanced Video Codec
Format profile                           : High@L3.1
Format settings, CABAC                   : No
Format settings, ReFrames                : 3 frames
Codec ID                                 : avc1
Codec ID/Info                            : Advanced Video Coding
Duration                                 : 3h 38mn
Bit rate                                 : 2 310 Kbps
Width                                    : 1 280 pixels
Height                                   : 720 pixels
Display aspect ratio                     : 16:9
Frame rate mode                          : Constant
Frame rate                               : 25.000 fps
Color space                              : YUV
Chroma subsampling                       : 4:2:0
Bit depth                                : 8 bits
Scan type                                : Progressive
Bits/(Pixel*Frame)                       : 0.100
Stream size                              : 3.52 GiB (96%)
Writing library                          : x264 core 130
Encoding settings                        : cabac=0 / ref=3 / deblock=1:0:0 / *censored*yse=0x3:0x113 / me=umh / subme=8 / psy=1 / psy_rd=1.00:0.00 / mixed_ref=1 / me_range=16 / chroma_me=1 / trellis=1 / 8x8dct=1 / cqm=0 / deadzone=21,11 / fast_pskip=1 / chroma_qp_offset=-2 / threads=60 / lookahead_threads=5 / sliced_threads=0 / nr=0 / decimate=1 / interlaced=0 / bluray_compat=0 / constrained_intra=0 / bframes=0 / weightp=2 / keyint=75 / keyint_min=7 / scenecut=40 / intra_refresh=0 / rc_lookahead=40 / rc=2pass / mbtree=1 / bitrate=2310 / ratetol=1.0 / qcomp=0.60 / qpmin=0 / qpmax=69 / qpstep=4 / cplxblur=20.0 / qblur=0.5 / vbv_maxrate=2716 / vbv_bufsize=2716 / nal_hrd=none / ip_ratio=1.40 / aq=1:1.00

Audio
ID                                       : 2
Format                                   : AAC
Format/Info                              : Advanced Audio Codec
Format profile                           : LC
Codec ID                                 : 40
Duration                                 : 3h 38mn
Bit rate mode                            : Variable
Bit rate                                 : 96.0 Kbps
Maximum bit rate                         : 103 Kbps
Channel count                            : 2 channels
Channel positions                        : Front: L R
Sampling rate                            : 44.1 KHz
Compression mode                         : Lossy
Stream size                              : 150 MiB (4%)


 5 arabp2p.com

 6 arabp2p.com

 7 arabp2p.com

 8 arabp2p.com

 9 arabp2p.com

 10 arabp2p.com

 11 arabp2p.com

 12 arabp2p.com

 13 arabp2p.com


الملفات ذات العلاقة بـ ( المسرحية الكوميدية (سيدتي الجميلة 1969) فؤاد المهندس وشويكار )
المسرحية الكويتية - الليله يصل محقان - عبدالحسين عبدالرضا - سعد الفرج 1969 4 0 934.22 MB
المسرحية الاجتماعية الكوميدية شهر عسل بصل 3 0 2.73 GB
المسرحية الكوميدية الكويتية [ البيت المسكون الجزء 1 + 2 ] 2 1 4.10 GB
المسرحية الكوميدية الكويتية [ فرسان المناخ 1983 ] نسخة [ Original FULL DVD ] 4 0 4.18 GB
المسرحية الكوميدية الكويتية [ الكورة مدورة 1988م ] نسخة [ Original FULL DVD + MKV ] 1 1 6.75 GB
dart3210مشكووووووووووور علي هذا المجهود و جاري التحميل
nemr23 تتعب وتتميز بأعمالك يانجم / nemr23 http://www.arabp2p.com/images/smilies/thumbsup.gif أطيب تحية ومتابعين دوماُ يا قمر . تسلم اخى الحبيب والبركة فى تشجيعك المستمر دئما منور مواضيعى
zin123تتعب وتتميز بأعمالك يانجم / nemr23 http://www.arabp2p.com/images/smilies/thumbsup.gif أطيب تحية ومتابعين دوماُ يا قمر .
nemr23 الف شكر على المجهود المميز تسلم يا غالى نورت الموضوع
hammed77الف شكر على المجهود المميز
nemr23 عملاق من يومك تسلم إيدك ربنا يبارك فيك يا دكتور تسلم واحشنى يا غالى نورت الموضوع
DrHebalaعملاق من يومك تسلم إيدك

الرئيسية - قائمة ملفات التورنت - فيسبوك