انقر هنا لمشاهدة النسخة الكاملة للصفحة

تورنت - Trishul 1978 مترجم DvDRip.XviD أميتاب وسانجيف كومار

افلام هنديه الحجم : 1.27 GB التراكر: داخلي المتصلين : 0,4  اكتمل ( 66 ) 13/07/2017 تحميل التورنت


 1 arabp2p.com

الفيلم الدرامى المتميز

Trishul 1978
(السهم)


بطولة
الأسطورة أميتاب
سانجيف كومار
شاشى كابور
راخى جوزال
هيمامالينى

ألف شكر للمترجم الكبير
أيهاب نصار

نسخة مترجمة DvDRip.XviD 2cd بمساحة 1.27 جيجا


قصة الفيلم
مهندس طموح (سانجيف كومار) يتخلى عن حبيبته من اجل النجاح السريع ويتزوج ابنت
رجل اعمال شهير ويرث امبراطوريته ويعيش مع ابنائه حياة مستقرة الى ان يظهر الشاب
الغامض فيجاى (اميتاب) الابن غير الشرعى الذى تخلى عنه ويسعى فيجاى لتحطيم حياة ابيه
العمالية والاسرية انتقاما لامه لكن عند اقترابه من اخواته يتردد فى تنفيذ خطته



General
Trishul (1978) DvDRip.XviD.CD1.by,nemr23.mkv
Format                                   : Matroska
Format version                           : Version 4 / Version 2
File size                                : 682 MiB
Duration                                 : 1h 15mn
Overall bit rate                         : 1 262 Kbps
Writing application                      : Lavf56.30.100
Writing library                          : Lavf56.30.100

Video
ID                                       : 1
Format                                   : AVC
Format/Info                              : Advanced Video Codec
Format profile                           : Baseline@L2.1
Format settings, CABAC                   : No
Format settings, ReFrames                : 1 frame
Codec ID                                 : V_MPEG4/ISO/AVC
Duration                                 : 1h 15mn
Bit rate                                 : 917 Kbps
Width                                    : 512 pixels
Height                                   : 384 pixels
Display aspect ratio                     : 4:3
Frame rate mode                          : Constant
Frame rate                               : 23.976 fps
Color space                              : YUV
Chroma subsampling                       : 4:2:0
Bit depth                                : 8 bits
Scan type                                : Progressive
Bits/(Pixel*Frame)                       : 0.194
Stream size                              : 496 MiB (73%)
Writing library                          : x264 core 146
Encoding settings                        : cabac=0 / ref=1 / deblock=1:0:0 / *censored*yse=0x1:0x1 / me=dia / subme=1 / psy=1 / psy_rd=1.00:0.00 / mixed_ref=0 / me_range=16 / chroma_me=1 / trellis=0 / 8x8dct=0 / cqm=0 / deadzone=21,11 / fast_pskip=1 / chroma_qp_offset=0 / threads=12 / lookahead_threads=2 / sliced_threads=0 / nr=0 / decimate=1 / interlaced=0 / bluray_compat=0 / constrained_intra=0 / bframes=0 / weightp=0 / keyint=250 / keyint_min=23 / scenecut=40 / intra_refresh=0 / rc=crf / mbtree=0 / crf=23.0 / qcomp=0.60 / qpmin=0 / qpmax=69 / qpstep=4 / ip_ratio=1.40 / aq=1:1.00
Default                                  : Yes
Forced                                   : No

Audio
ID                                       : 2
Format                                   : MPEG Audio
Format version                           : Version 1
Format profile                           : Layer 3
Mode                                     : Joint stereo
Mode extension                           : MS Stereo
Codec ID                                 : A_MPEG/L3
Codec ID/Hint                            : MP3
Duration                                 : 1h 15mn
Bit rate mode                            : Constant
Bit rate                                 : 320 Kbps
Channel count                            : 2 channels
Sampling rate                            : 44.1 KHz
Compression mode                         : Lossy
Delay relative to video                  : -25ms
Stream size                              : 173 MiB (25%)
Writing library                          : LAME3.99.5
Default                                  : Yes
Forced                                   : No



 2 arabp2p.com

الملفات ذات العلاقة بـ ( Trishul 1978 مترجم DvDRip.XviD أميتاب وسانجيف كومار )
Shakti 1982 مترجم DVDRip درامى أكشن أميتاب ودليب كومار 4 0 2.60 GB
Hera.Pheri.1976 مترجم DVDRip-Xvid كوميدى اكشن أميتاب وفينود كانا 3 0 1.56 GB
Khud Daar 1982 مترجم DvDRip أكشن درامى أميتاب وبارفين بابى 4 0 1.42 GB
Sarkar 3 2017 مترجم 720p DvDRip جريمة سياسى أميتاب وجاكى شاروف 1 0 2.61 GB
Major Saab 1998 مترجم 720p DvDRip أكشن رومانسى أميتاب وأجاى ديفجان 1 0 3.02 GB
nemr23 الحمدلله على السلامة عزيزي / محمد على الفيلم الرائع وشكراً لأخونا إيهاب نصار على ترجمته المتميزة . الله يسلمك اخى الحبيب دائما تسعدنى متابعتك الدائمة الفيلم من افضل الافلام الاجتماعية لاميتاب مع المخرج المتميز ياش شوبرا
nemr23 الف شكر على المجهود المميز تسلم اخى الغالى نورت الموضوع
zin123الحمدلله على السلامة عزيزي / محمد على الفيلم الرائع وشكراً لأخونا إيهاب نصار على ترجمته المتميزة .
hammed77الف شكر على المجهود المميز
nemr23 الف شكر أخى محمد على الفيلم الرائع وأشكر الأخ إيهاب نصار على ترجمته المتميزة تسلم اخى عمرو الغالى دائما تسعدنى متابعتك
RAMBO23 الف شكر أخى محمد على الفيلم الرائع وأشكر الأخ إيهاب نصار على ترجمته المتميزة

الرئيسية - قائمة ملفات التورنت - فيسبوك