انقر هنا لمشاهدة النسخة الكاملة للصفحة

تورنت - Phobia (2016) 720p DvDRip x264 AAC -Subbed Arabic

افلام هنديه الحجم : 546.73 MB التراكر: داخلي المتصلين : 0,2  اكتمل ( 50 ) 07/08/2016 تحميل التورنت

 1 arabp2p.com

Phobia (2016)  720p DvDRip x264 AAC -Subbed Arabic

(الترجمة VOBSUB مدمجة مع الفيلم)

 2 arabp2p.com

 3 arabp2p.com

 4 arabp2p.com

 5 arabp2p.com

:
Complete name               : Phobia (2016)  720p DvDRip x264 AAC -Subbed ArabicPhobia (2016)  720p DvDRip x264 AAC -Subbed Arabic.mkv
Format                      : Matroska
Format version              : Version 4 / Version 2
File size                   : 546 MiB
Duration                    : 1h 51mn
Overall bit rate            : 687 Kbps
Encoded date                : UTC 2016-08-07 15:34:55
Writing application         : mkvmerge v8.1.0 ('Psychedelic Postcard') 32bit
Writing library             : libebml v1.3.1 + libmatroska v1.4.2

Video
ID                          : 1
Format                      : AVC
Format/Info                 : Advanced Video Codec
Format profile              : High@L4.1
Format settings, CABAC      : Yes
Format settings, ReFrames   : 12 frames
Codec ID                    : V_MPEG4/ISO/AVC
Duration                    : 1h 51mn
Bit rate                    : 493 Kbps
Width                       : 1 280 pixels
Height                      : 544 pixels
Display aspect ratio        : 2.35:1
Frame rate mode             : Constant
Frame rate                  : 23.976 (24000/1001) fps
Color space                 : YUV
Chroma subsampling          : 4:2:0
Bit depth                   : 8 bits
Scan type                   : Progressive
Bits/(Pixel*Frame)          : 0.030
Stream size                 : 392 MiB (72%)
Writing library             : x264 core 148 r2692 64f4e24
Encoding settings           : cabac=1 / ref=12 / deblock=1:-2:-2 / *censored*yse=0x3:0x133 / me=umh / subme=10 / psy=1 / psy_rd=1.00:0.15 / mixed_ref=1 / me_range=32 / chroma_me=1 / trellis=2 / 8x8dct=1 / cqm=0 / deadzone=21,11 / fast_pskip=1 / chroma_qp_offset=-3 / threads=17 / lookahead_threads=2 / sliced_threads=0 / nr=0 / decimate=1 / interlaced=0 / bluray_compat=0 / constrained_intra=0 / bframes=8 / b_pyramid=2 / b_adapt=2 / b_bias=0 / direct=3 / weightb=1 / open_gop=0 / weightp=2 / keyint=230 / keyint_min=23 / scenecut=40 / intra_refresh=0 / rc_lookahead=60 / rc=crf / mbtree=1 / crf=26.0 / qcomp=0.60 / qpmin=0 / qpmax=69 / qpstep=4 / vbv_maxrate=62500 / vbv_bufsize=78125 / crf_max=0.0 / nal_hrd=none / filler=0 / ip_ratio=1.40 / aq=1:1.00
Language                    : English
Default                     : Yes
Forced                      : No
Color range                 : Limited
Color primaries             : BT.709
Transfer characteristics    : BT.709
Matrix coefficients         : BT.709

Audio
ID                          : 2
Format                      : AAC
Format/Info                 : Advanced Audio Codec
Format profile              : LC
Codec ID                    : A_AAC
Duration                    : 1h 51mn
Bit rate                    : 192 Kbps
Channel(s)                  : 6 channels
Channel positions           : Front: L C R, Side: L R, LFE
Sampling rate               : 48.0 KHz
Frame rate                  : 46.875 fps (1024 spf)
Compression mode            : Lossy
Delay relative to video     : 9ms
Stream size                 : 152 MiB (28%)
Language                    : Hindi
Default                     : Yes
Forced                      : No

Text
ID                          : 3
Format                      : VobSub
Muxing mode                 : zlib
Codec ID                    : S_VOBSUB
Codec ID/Info               : Picture based subtitle format used on DVDs
Duration                    : 1h 38mn
Bit rate                    : 690 bps
Count of elements           : 1029
Stream size                 : 497 KiB (0%)
Language                    : Arabic
Default                     : No
Forced                      : No

Menu #1
00:00:00.000                : en:Chapter 1
00:01:24.900                : en:Chapter 2
00:10:21.000                : en:Chapter 3
00:15:47.667                : en:Chapter 4
00:24:15.733                : en:Chapter 5
00:28:26.166                : en:Chapter 6
00:41:47.699                : en:Chapter 7
00:44:59.499                : en:Chapter 8
00:54:37.532                : en:Chapter 9
01:00:54.632                : en:Chapter 10
01:02:57.965                : en:Chapter 11
01:11:23.965                : en:Chapter 12
01:13:23.298                : en:Chapter 13
01:24:20.831                : en:Chapter 14
01:31:31.164                : en:Chapter 15
01:45:17.797                : en:Chapter 16
01:50:56.497                : en:Chapter 17

Menu #2
00:00:00.054                : en:00:00:00.054




 6 arabp2p.com



 7 arabp2p.com

 8 arabp2p.com

 9 arabp2p.com

 10 arabp2p.com

 11 arabp2p.com

 12 arabp2p.com




 13 arabp2p.com



الملفات ذات العلاقة بـ ( Phobia (2016) 720p DvDRip x264 AAC -Subbed Arabic )
1920London (2016) - DvdRip - X264 -Subbed Arabic 2 0 696.50 MB
Housefull 3 2016 Hindi 720p DvDRip - Subbed Arabic 2 0 952.42 MB
Nil Battey Sannata (2016) - DvdRip - X264 -Subbed Arabic 2 0 695.57 MB
Befikre (2016) 720p BluRay x264 - Subbed Arabic 8 0 1.64 GB
Pink.2016.Hindi.720p.BluRay.x264-Subbed Arabic 5 0 1.12 GB
nemr23الف شكر يا نجم التراكر على الفيلم المرعب والترجمة

الرئيسية - قائمة ملفات التورنت - فيسبوك