انقر هنا لمشاهدة النسخة الكاملة للصفحة

تورنت - فيلم [2015][Shaun the Sheep [BlueRay][1080p

افلام الحجم : 2.09 GB التراكر: داخلي المتصلين : 1,13  اكتمل ( 51 ) 15/03/2019 تحميل التورنت

 1 arabp2p.com


أشارككم الفيلم العائلى الرائع
Shaun the Sheep Movie


 2 arabp2p.com


 3 arabp2p.com

اسم الفيلم:   Shaun the Sheep Movie

رسوم متحركة، مغامرة، كوميديا

مدة الفيلم: 85 دقيقة ( ساعة و 25 دقيقة )

تاريخ العرض : أغسطس 2015

جودة الفيديو: 1080p

ماذا سيحدث عندما يقرر الخروف " شون " أخذ عطلة و الاستمتاع بها




:
General
Complete name               [ SHAUN THE SHEEP ] [MOVIE] [2015] [BluRay] [1080p]
Format                         : MPEG-4
Format profile                 : Base Media / Version 2
Codec ID                       : mp42
File size                      : 2.08 GiB
Duration                       : 1h 25mn
Overall bit rate mode          : Variable
Overall bit rate               : 3 500 Kbps
Writing application            : HandBrake 0.10.1 2015030800

Video
ID                             : 1
Format                         : AVC
Format/Info                    : Advanced Video Codec
Format profile                 : Main@L4
Format settings, CABAC         : Yes
Format settings, ReFrames      : 4 frames
Codec ID                       : avc1
Codec ID/Info                  : Advanced Video Coding
Duration                       : 1h 25mn
Bit rate                       : 3 333 Kbps
Width                          : 1 920 pixels
Height                         : 1 040 pixels
Display aspect ratio           : 1.85:1
Frame rate mode                : Constant
Frame rate                     : 24.000 fps
Color space                    : YUV
Chroma subsampling             : 4:2:0
Bit depth                      : 8 bits
Scan type                      : Progressive
Bits/(Pixel*Frame)             : 0.070
Stream size                    : 1.98 GiB (95%)

Color range                    : Limited
Color primaries                : BT.709
Transfer characteristics       : BT.709
Matrix coefficients            : BT.709

Audio
ID                             : 2
Format                         : AAC
Format/Info                    : Advanced Audio Codec
Format profile                 : LC
Codec ID                       : 40
Duration                       : 1h 24mn
Bit rate mode                  : Variable
Bit rate                       : 160 Kbps
Channel(s)                     : 2 channels
Channel positions              : Front: L R
Sampling rate                  : 48.0 KHz
Compression mode               : Lossy
Stream size                    : 97.4 MiB (5%)
Title                          : Stereo / Stereo




 4 arabp2p.com


 5 arabp2p.com



مشاهدة ممتعة

الملفات ذات العلاقة بـ ( فيلم [2015][Shaun the Sheep [BlueRay][1080p )
فيلم The Peanuts Movie 2015 مدبلج 3 0 861.12 MB
[Beat Bugs [2015] [NETFLIX-1080p 6 0 1.68 GB
The.Lion.Guard.Return.of.the.Roar.2015.1080p 5 0 1.55 GB
الديناصور اللّطيف The Good Dinosaur 2015 1080p 3D Arabic 2 1 4.62 GB
فيلم The Wild 2006 [مدبلج][1080p] 3 0 1.19 GB
Bidooo الفيلم صامت مدبلج ازاي ايوة الفيلم صامت وقسم الافلام الصامتة لا يقبل الاضافات و ده اللى وضحته مشاهدة ممتعة
himameloالفيلم صامت مدبلج ازاي
playamineشكراا على الطرح لكن الفيلم صامت فكيف يكون مدبلج ؟؟؟

الرئيسية - قائمة ملفات التورنت - فيسبوك