انقر هنا لمشاهدة النسخة الكاملة للصفحة

تورنت - Once Upon A Time In Mexico 2003 1080p BluRay H264 AAC-RARBG

افلام اجنبيه الحجم : 1.94 GB التراكر: خارجي المتصلين : 0,2  اكتمل ( 44 ) 29/04/2016 تحميل التورنت

بسم الله الرحمن الرحيم






Antonio Banderas




 1 arabp2p.com






Johnny Depp




 2 arabp2p.com





Salma Hayek




 3 arabp2p.com





للمرة الأولى في الولايات المتحدة الأمريكية عام 2003؛ يجمع الفيلم بين عناصر الحركة والجريمة والدراما والإثارة. وقد تولى روبرت رودريجز كتابة سيناريو الفيلم وقام بإخراجه وعمل المونتاج له.
ويعد فيلم \"Once Upon A Time in Mexico\"، الذي تبلغ مدة عرضه 102 دقيقة، هو الفيلم الأخير من ثلاثية أفلام مارياتشي؛ حيث سبقه فيلمي \"El Mariachi\" و\"Desperado\". ويقوم أنطونيو بانداريس بنفس دور المارياتشي.
ويضم الفيلم نخبة من النجوم الآخرين، مثل جوني ديب في دور ساندز، وسلمى حايك في دور كارولينا، ووليم دافو في دور باريلو، وإنريك إجلاسياس في دور لورينزو، ومايكي رورك في دور بيلي، وإيفا مينديز في دور أجيدريز، وروبين بليدز في دور جورج.
وقد حظي الفيلم بترحيب كبير من قبل النقاد رغم انتقادهم لتقليص دور المارياتشي (أنطونيو بانداريس) ليصبح شخصية شبه ثانوية في الثلاثية التي تحمل اسمه، وقد تعرض الفيلم للنقد أيضا حيث اعتبره البعض بمثابة حبكة معقدة.
حقق الفيلم رقما قياسيا في مبيعات شباك التذاكر نظرا لأنه حقق إيرادات تجاوزت إيرادات \"Desperado\" بنسبة 122%، وقد بلغت ميزانية الفيلم 29 مليون دولار أمريكي، بينما حقق الفيلم على المستوى المحلي إيرادات وصلت إلى 56 مليون دولار، ووصل إجمالي الإيرادات العالمية إلى 98 مليون دولار.
وتدور القصة حول المارياتشي (بانداريس) الذي يتم تجنيده من قبل ساندز عميل المخابرات المركزية الأمريكية من أجل اغتيال الجنرال ماركيز. وكان ماركيز قد قتل زوجة وطفلة المارياتشي. ويستعين باريلو، أحد أباطرة المخدرات بالمكسيك، بماركيز من أجل اغتيال الرئيسي المكسيكي.
ويقوم ساندز بتجنيد جورج راميرز، عميل مكتب التحقيقات الفيدرالية الأسبق، لقتل باريلو، حيث كان باريلو مسؤولا عن مقتل العميل أرشوليتا، شريك راميرز، ويستعين ساندز أيضا بأجيدريز، عميل القوات المسلحة الأمريكية من أجل تعقب باريلو.
ومع وضوح الحبكة، يبدأ العملاء في الانقلاب ضد ساندز، وفي يوم الانقلاب ضد الرئيس، يجد ساندز نفسه محتجزا ومعصب العينين. ومع ذلك يتمكن بمساعدة أحد الفتيان من الانتقام لما تعرض له.
وفي غضون ذلك، يقوم المارياتشي بالاستعانة بصديقيه لمساعدته في إنقاذ الرئيس. ويقوم المرياتشي بقتل ماركيز بإطلاق النار على ركبتيه ثم إصابته في رأسه، انتقاما لزوجته وابنته؛ ويهب لمساعدة راميريز في قتل باريلو، الذي يسقط من أعلى التراس حينما يصيبه المارياتشي بمسدسه.
فاز الفيلم بجائزة Imagen Award لأحسن ممثل (أنطونيو بانداريس) وأفضل ممثل مساعد (روبين بليدز). وفاز أيضا بجائزة Golden Globe لأفضل أغنية لروبرت رودريجز عام 2004.






Once Upon a Time in Mexico (2003)






 4 arabp2p.com
 5 arabp2p.com





قصة الفيلم






تدور القصة حول المارياتشي (بانداريس) الذي يتم تجنيده من قبل ساندز عميل المخابرات المركزية الأمريكية من أجل اغتيال الجنرال ماركيز. وكان ماركيز قد قتل زوجة وطفلة المارياتشي. ويستعين باريلو، أحد أباطرة المخدرات بالمكسيك، بماركيز من أجل اغتيال الرئيسي المكسيكي.







 6 arabp2p.com





 7 arabp2p.com






 8 arabp2p.com







Video
ID : 1
Format : AVC
Format/Info : Advanced Video Codec
Format profile : High@L4.1
Format settings, CABAC : Yes
Format settings, ReFrames : 4 frames
Codec ID : avc1
Codec ID/Info : Advanced Video Coding
Duration : 1h 41mn
Bit rate : 2 500 Kbps
Width : 1 920 pixels
Height : 1 080 pixels
Display aspect ratio : 16:9
Frame rate mode : Constant
Frame rate : 23.976 fps
Color space : YUV
Chroma subsampling : 4:2:0
Bit depth : 8 bits
Scan type : Progressive
Bits/(Pixel*Frame) : 0.050
Stream size : 1.78 GiB (92%)
Writing library : x264 core 148 r2597M e86f3a1
Encoding settings : cabac=1 / ref=4 / deblock=1:-1:-1 / *censored*yse=0x3:0x113 / me=umh / subme=9 / psy=1 / psy_rd=1.00:0.15 / mixed_ref=1 / me_range=24 / chroma_me=1 / trellis=2 / 8x8dct=1 / cqm=0 / deadzone=21,11 / fast_pskip=1 / chroma_qp_offset=-3 / threads=32 / lookahead_threads=4 / sliced_threads=0 / nr=0 / decimate=1 / interlaced=0 / bluray_compat=0 / constrained_intra=0 / bframes=3 / b_pyramid=2 / b_adapt=1 / b_bias=0 / direct=1 / weightb=1 / open_gop=0 / weightp=2 / keyint=250 / keyint_min=25 / scenecut=40 / intra_refresh=0 / rc_lookahead=50 / rc=2pass / mbtree=1 / bitrate=2500 / ratetol=1.0 / qcomp=0.60 / qpmin=0 / qpmax=69 / qpstep=4 / cplxblur=20.0 / qblur=0.5 / vbv_maxrate=31250 / vbv_bufsize=31250 / nal_hrd=none / filler=0 / ip_ratio=1.40 / aq=3:1.00
Encoded date : UTC 1904-01-01 00:00:00
Tagged date : UTC 1904-01-01 00:00:00

Audio
ID : 2
Format : AAC
Format/Info : Advanced Audio Codec
Format profile : LC
Codec ID : 40
Duration : 1h 41mn
Bit rate mode : Constant
Bit rate : 224 Kbps
Channel(s) : 2 channels
Channel(s)_Original : 6 channels
Channel positions : Front: L C R, Side: L R, LFE
Sampling rate : 48.0 KHz
Compression mode : Lossy
Stream size : 163 MiB (8%)
Language : English







 9 arabp2p.com






 10 arabp2p.com

 11 arabp2p.com

 12 arabp2p.com

 13 arabp2p.com




تحذير هام







 14 arabp2p.com






enjoy




الملفات ذات العلاقة بـ ( Once Upon A Time In Mexico 2003 1080p BluRay H264 AAC-RARBG )
Now.You.See.Me.2.2016.1080p.BluRay.H264.AAC-RARBG 6497 13219 2.47 GB
The.Magnificent.Seven.2016.1080p.BluRay.H264.AAC-RARBG 3614 6089 2.55 GB
The.Infiltrator.2016.1080p.BluRay.H264.AAC-RARBG 784 389 2.44 GB
Anthropoid.2016.1080p.BluRay.H264.AAC-RARBG 525 273 2.31 GB
Nerve.2016.1080p.BluRay.H264.AAC-RARBG 524 371 1.85 GB
aseefممممممششششككككككككككككورين
WeCaAlAaتسلم يا بطل
Ferraraمشكور يا اخي الله يعطيك العافية
ahmedboy جامد من يومك يامان تسلم يا نجم حبيبي يا ابو صلاح شكراً لمرورك الغالى
المصطفى2007جامد من يومك يامان تسلم يا نجم

الرئيسية - قائمة ملفات التورنت - فيسبوك