انقر هنا لمشاهدة النسخة الكاملة للصفحة

تورنت - إفتح ياسمسم - الجزء الثالث - غير مكتمل

تعليمي الحجم : 3.30 GB التراكر: داخلي المتصلين : 0,0  اكتمل ( 97 ) 13/05/2016 تحميل التورنت

 1 arabp2p.com

أقدم لكم : 36 حلقة من مسلسل إفتح ياسمسم (الجزء الثالث )
قمت بتسجيلها في وقت سابق ؛ الآن فقط أتيحت لي الفرصة ...
أن أرفعها كملف تورنت ( بفضل أخي  * Zimo * فشكرا له ) .

العمل كالاجزاء السابقة و الكثير من الأعمال النادرة
من إنتاج :


 2 arabp2p.com

 3 arabp2p.com



 4 arabp2p.com
الجزء الثالث

في سنة 1989 أنتج الجزء الثالث من البرنامج بالفعل،
وعاد فيصل الياسري إلى الاشراف عليه
وفي سنة 1990 حصلت أحداث حرب الخليج الأولى
وقد بثت 44 حلقة من أصل 120 حلقة مفقودة.
هذا و قد أدى التوتر السياسي ...
إلى إلغاء العديد من المشاهد التي أداها ممثلون عراقيون.



 5 arabp2p.com
 6 arabp2p.com



 7 arabp2p.com

:

General
Format: MPEG-4
File size  : 99.9 MiB
Duration  : 19mn 11s


Video

Format   : AVC
Format settings, : 5 frames
Duration : 19mn 11s
Bit rate: 623 Kbps
Width : 786 pixels
Height: 576 pixels
Display aspect ratio: 4:3
Frame rate : 23.976
Bit depth: 8 bits
Scan type Progressive
Stream size : 85.5 MiB (86%)


Audio

Format: AAC
Format/Info: Advanced Audio Codec
Bit rate: 96.0 Kbps
Channel(s): 2 channels
Channel positions : Front: L R
Sampling rate : 44.1 KHz
Frame rate : 43.066 fps (1024 spf)
Compression mode: Lossy
Stream size : 13.2 MiB (13%)
Language : Arabic




تحيتي للجميع



yousefahmed شكرا .... كل الشكر لإخواني blackman1403 | yousefahmed لدعمهم الملف بالسيد بوكس ... ولو العفو اخي الكريم ربي يعطيك الف عافية علي الرفع والله يقويك يارب في انتظار المزيد من اعمالك وحصرياتك المتميزة <3 تقبل خالص تحياتي في امان الله
الميلاد شكرا .... كل الشكر لإخواني blackman1403 | yousefahmed لدعمهم الملف بالسيد بوكس ...
الميلاد أخي zin123 غمرتني بلطف كلماتك وليس غريبا على ابن الأكارم تسلم تسلم لتشريفك الصحة بطلتك البهية تقبل تحيتي أخي هرهور حتى وانت ترد على المواضيع لا تمل العمل .... شكرا جزيلا على تصحيح مكان الموضوع و سامحني غلبتك معي ربي يجازيك عنّا خير الجزاء تقبل تحيتي
zin123جامد للغاية اخي بوسارة تعودنا دائماً على ما تقدم انه يكون على احدث واروع انتاج وكذلك من الكمالية والابداع شكراً للاضافة الذهبية ولاشك ان المسلسل كان له ذكرى رائعه في قلوبنا في تلك الايام والتي لم يكن يتوفر لدينا دشوش ( صحون فضائية ) ولم يكن متوفر سوى البث المركزي بالدولة اطيب تحية وتقدير ومتابعين دوماُ .
هرهورإصدار رائع اخي الميلاد جزاك الله خيرا على مجهودك في المتابعة والتسجيل تم نقله للقسم المناسب وتثبيته تحياتي
الميلاد من زمان ماشفنا جمال مثل كذا .. الف شكر لك يامبدع العفو اخي ...80sman .. /.. شرفت ونورت الموضوع اعمالك دائما لها نكهة خاصة عمل متعوب عليه تسلم اخي ميلاد الله يسلمك .. ممنون جدا لتشريفك الصفحة جزاك الله خيرا تحيتي
80smanمن زمان ماشفنا جمال مثل كذا .. الف شكر لك يامبدع
ahmedmohammedاعمالك دائما لها نكهة خاصة عمل متعوب عليه تسلم اخي ميلاد
الميلاد http://i1156.photobucket.com/albums/p569/fathbadr12/339-th10_zpsgzc2ejmn.gif http://i1156.photobucket.com/albums/p569/fathbadr12/b93039ba_zpshxat9oar.gif عـفـوا
fathbadrhttp://i1156.photobucket.com/albums/p569/fathbadr12/339-th10_zpsgzc2ejmn.gif http://i1156.photobucket.com/albums/p569/fathbadr12/b93039ba_zpshxat9oar.gif
الميلاد تسلم ايدك الله يسلمك و يحفظك اخي
vipkingosaa1تسلم ايدك
الميلاد عمل رائع يا بطل شكرا لك الله يبارك فيك أخي ostron988 ... شرفت و نورت الموضوع
ostron988عمل رائع يا بطل شكرا لك

الرئيسية - قائمة ملفات التورنت - فيسبوك