انقر هنا لمشاهدة النسخة الكاملة للصفحة

تورنت - An Extremely Goofy Movie 2000 1080p باللّهجة المصريّة الجميلة

افلام الحجم : 2.71 GB التراكر: داخلي المتصلين : 0,4  اكتمل ( 650 ) 04/08/2014 تحميل التورنت

 1 arabp2p.com



يسرّني أن أقدّم لكم الفلم الأكثر من رائع وبالدّبلجة المصريّة الجميلة


An Extremely Goofy Movie 2000 1080p



 2 arabp2p.com



 3 arabp2p.com


# أجمل ما في الفلم أنّه باللّهجة المصريّة الرّائعة، وهي على ما أظنّ من أحسن النّسخ الموجودة على النّت :) .



:
Format                         : Matroska
Format version                 : Version 4 / Version 2
File size                      : 2.71 GiB
Duration                       : 1h 18mn
Overall bit rate               : 4 919 Kbps
Movie name                     : BobMusic
Encoded date                   : UTC 2014-01-28 07:35:49
Writing application            : mkvmerge v6.7.0 ('Back to the Ground') 64bit built on Jan  8 2014 15:10:52
Writing library                : libebml v1.3.0 + libmatroska v1.4.1

Video
ID                             : 1
Format                         : AVC
Format/Info                    : Advanced Video Codec
Format profile                 : High@L4.0
Format settings, CABAC         : Yes
Format settings, ReFrames      : 4 frames
Format settings, GOP           : N=2
Codec ID                       : V_MPEG4/ISO/AVC
Duration                       : 1h 18mn
Bit rate                       : 4 629 Kbps
Width                          : 1 916 pixels
Height                         : 1 076 pixels
Display aspect ratio           : 16:9
Frame rate mode                : Constant
Frame rate                     : 23.976 fps
Color space                    : YUV
Chroma subsampling             : 4:2:0
Bit depth                      : 8 bits
Scan type                      : Progressive
Bits/(Pixel*Frame)             : 0.094
Stream size                    : 2.55 GiB (94%)
Language                       : English
Default                        : Yes
Forced                         : No
Color primaries                : BT.709
Transfer characteristics       : BT.709
Matrix coefficients            : BT.709

Audio
ID                             : 2
Format                         : AC-3
Format/Info                    : Audio Coding 3
Mode extension                 : CM (complete main)
Format settings, Endianness    : Big
Codec ID                       : A_AC3
Duration                       : 1h 18mn
Bit rate mode                  : Constant
Bit rate                       : 192 Kbps
Channel(s)                     : 2 channels
Channel positions              : Front: L R
Sampling rate                  : 48.0 KHz
Bit depth                      : 16 bits
Compression mode               : Lossy
Stream size                    : 108 MiB (4%)
Default                        : Yes
Forced                         : No






 4 arabp2p.com



 5 arabp2p.com

 6 arabp2p.com

 7 arabp2p.com

 8 arabp2p.com










 9 arabp2p.com




 10 arabp2p.com

الملفات ذات العلاقة بـ ( An Extremely Goofy Movie 2000 1080p باللّهجة المصريّة الجميلة )
فيلم ديناصور مدبلج باللهجة المصرية Dinosaur [2000] 1080p Arabic 1 0 1.17 GB
[Movie] دمبو (Dumbo (1942 [باللهجة المصرية][1080p] 6 0 2.08 GB
[Movie] Bolt (2008) [باللهجة المصرية][ENG][1080p] 2 0 1.52 GB
[Movie] Aladdin And The King Of Thieves (1996) [باللهجة المصرية][1080p][x265] 1 0 1.35 GB
[Movie] بوكاهونتاس (1995) Pocahontas [باللهجة المصرية][ENG][1080p] {دبلجتي} 1 0 1.43 GB
adhamomranADOشكرا جزيلا للنسخة الرائعة دى
الميلاد شكرًا على مجهودك أنصح من يريد تحميل الفيلم ألا يقتنيه للأطفال لأنه الفيلم يحكي طبيعة حياة المراهقين في بلاد الغرب وهو ما لا يتناسب مع حياة المسلمين لا أنصح تنزيل الفيلم للأطفال شكرااااااا
newlineشكرًا على مجهودك أنصح من يريد تحميل الفيلم ألا يقتنيه للأطفال لأنه الفيلم يحكي طبيعة حياة المراهقين في بلاد الغرب وهو ما لا يتناسب مع حياة المسلمين لا أنصح تنزيل الفيلم للأطفال
vipkingosaa1فعلا من احسن النسخ الموجودة ع النت خصوصا ان الدبلجة اكترها بقت الفصحى للاسف كاننا بنتفرج ع مسرحية بالفصحى مشكور ليك و لتعبك الغالي
o0oYuSuFo0o مميز و الله مميز تسلم أخي مشكور على مرورك وكلامك الطّيّب :)
egyfaresمميز و الله مميز
o0oYuSuFo0oمشكور أخي بو عبدالله على الدّعم بالسّيد بوكس :)
o0oYuSuFo0o يسلمو على الاضافة , وعمل منك اكيد بيكون رائع . أكرمك الله أخي بو عبدالله مشكور على تشجيعك وكلام الطّيّب :)
zin123يسلمو على الاضافة , وعمل منك اكيد بيكون رائع .
o0oYuSuFo0oأشكر الإخوة akram008 | mansor2010 على الدّعم بالسّيد بوكس :)
o0oYuSuFo0oالشّكر الجزيل للأخ Alexander على دعمه لي في رفع الفلم :)
o0oYuSuFo0o رائع جداً الله يعطيك العافية الله يعافيك أخي الكريم مشكور على مرورك :)
رائع جداً الله يعطيك العافية
o0oYuSuFo0o you're the best مشكور أخي الكريم asebtin09 على مرورك وكلامك الطّيّب :)
asebtin09you're the best
o0oYuSuFo0o السلام عليكم شكراً لك اخي الغالي يعطيك العافيه على الفيلم والموضوع عمل رائع ونادر. وكل عام وانت بخير .. عيد سعيد عليكم السّلام ورحمة الله وبركاته أهلا بك أخي الكريم ومشكور على كلماتك الطّيّبة وعلى مرورك العطر وأنتَ بخير وإلى الله أقرب :)
don2010السلام عليكم شكراً لك اخي الغالي يعطيك العافيه على الفيلم والموضوع عمل رائع ونادر. وكل عام وانت بخير .. عيد سعيد
o0oYuSuFo0o تسلم عزيزي لاهنت يالغالي ماهو مصدر الصوت DVD ام من قناة جيم :) ليس من قناة جيم والحمد لله لهجة الفلم الأصليّة كما شاهدناها على ديزني مشكور على مرورك :D
zezoo10تسلم عزيزي لاهنت يالغالي ماهو مصدر الصوت DVD ام من قناة جيم :)

الرئيسية - قائمة ملفات التورنت - فيسبوك