انقر هنا لمشاهدة النسخة الكاملة للصفحة

تورنت - جميع حلقات بليتش و الأفلام و الأوفا

مسلسلات الحجم : 76.56 GB التراكر: داخلي المتصلين : 1,3  اكتمل ( 1905 ) 25/07/2013 تحميل التورنت

السلام عليكم و رحمة الله و بركاته

أولا التورنت مدعوم بسيرفر سيد بوكس 1 جيجا لذلك حمل براحتك لسرعة تصل حتى 115 ميغا/ثا

جميع حلقات بليتش + الأفلام + الأوفا
 1 arabp2p.com


بحجم خيالي 78 جيجا

عدد الحقات : 366
عدد الأفلام : 4
عدد الأوفا : 2
الجودة : 1280×720

من قام برجمة هذه الأعمال
إنمي يونفرس (1-2 & 16-20 & 54-63 & 65-80 & 87  )
الشهاب الابيض ( 3-15 )
انمي 5 ستار( 221-225 & 227-229 & 232 )
مكسات ( 45-49 & 96-103 & 143-147 & 195-196 & 199-201 & 208-212 &  231-237 & 239-289 & 294-295 & 298 & 300-304 & 308-309 & 312-313 & 315-323 & 325-344 & 346-360 & الفلم 3 )
VB3RB(ا 290-293 & 296-297 & 299 & 306-307 & 314 &  الفلم 2 )
العاشق ( 361-366 & الفلم 4 )
جزيرة الانمي ( 21-44 & 52-53 & 64 & 81-85 & 88-95 & 104 & 108 & 110-115 & 117-119 & 121-142 &  148-194 & 202-207 &  213-220 & 226 & 230 & 238 & 305 & 310-311 & 324 & 345 )
سايق الخير ( 50-51 & 86 & 105-107 & 109 & 116 & 120 )
الشرينج كود ( الفلم 1 )
اكسول تيم ( الاوفا 1 & الاوفا 2 )


الجودة


 2 arabp2p.com

 3 arabp2p.com

 4 arabp2p.com

 5 arabp2p.com

 6 arabp2p.com

 7 arabp2p.com

 8 arabp2p.com

 9 arabp2p.com

 10 arabp2p.com

 11 arabp2p.com

 12 arabp2p.com

 13 arabp2p.com

 14 arabp2p.com


Code
General
Complete name                  : C:UsersBretHartDownloadssK-w1.CoMTorrent[SeeDBox]_All.About.Bleach.TheMoHanD_[SeeDBox]MovieBleach movie - 1 .mp4
Format                         : MPEG-4
Format profile                 : Base Media
Codec ID                       : isom
File size                      : 1.85 GiB
Duration                       : 1h 30mn
Overall bit rate mode          : Variable
Overall bit rate               : 2 921 Kbps
Encoded date                   : UTC 2010-09-22 08:33:48
Tagged date                    : UTC 2010-09-22 08:33:48

Video
ID                             : 1
Format                         : AVC
Format/Info                    : Advanced Video Codec
Format profile                 : High@L3.1
Format settings, CABAC         : Yes
Format settings, ReFrames      : 4 frames
Codec ID                       : avc1
Codec ID/Info                  : Advanced Video Coding
Duration                       : 1h 30mn
Bit rate                       : 2 765 Kbps
Maximum bit rate               : 21.0 Mbps
Width                          : 1 280 pixels
Height                         : 688 pixels
Display aspect ratio           : 1.860
Frame rate mode                : Constant
Frame rate                     : 23.976 fps
Color space                    : YUV
Chroma subsampling             : 4:2:0
Bit depth                      : 8 bits
Scan type                      : Progressive
Bits/(Pixel*Frame)             : 0.131
Stream size                    : 1.75 GiB (95%)
Title                          : Imported with GPAC 0.4.6-DEV (internal rev. 5)
Writing library                : x264 core 98 r1649 c54c47d
Encoding settings              : cabac=1 / ref=3 / deblock=1:0:0 / *censored*yse=0x3:0x113 / me=hex / subme=7 / psy=1 / psy_rd=1.00:0.00 / mixed_ref=1 / me_range=16 / chroma_me=1 / trellis=1 / 8x8dct=1 / cqm=0 / deadzone=21,11 / fast_pskip=1 / chroma_qp_offset=-2 / threads=3 / sliced_threads=0 / nr=0 / decimate=1 / interlaced=0 / constrained_intra=0 / bframes=3 / b_pyramid=2 / b_adapt=1 / b_bias=0 / direct=1 / weightb=1 / weightp=2 / keyint=250 / keyint_min=25 / scenecut=40 / intra_refresh=0 / rc_lookahead=40 / rc=2pass / mbtree=1 / bitrate=2765 / ratetol=1.0 / qcomp=0.60 / qpmin=10 / qpmax=51 / qpstep=4 / cplxblur=20.0 / qblur=0.5 / ip_ratio=1.40 / aq=1:1.00
Encoded date                   : UTC 2010-09-22 08:33:48
Tagged date                    : UTC 2010-09-22 08:35:39

Audio
ID                             : 2
Format                         : AAC
Format/Info                    : Advanced Audio Codec
Format profile                 : LC
Codec ID                       : 40
Duration                       : 1h 30mn
Bit rate mode                  : Variable
Bit rate                       : 152 Kbps
Maximum bit rate               : 207 Kbps
Channel(s)                     : 2 channels
Channel positions              : Front: L R
Sampling rate                  : 48.0 KHz
Compression mode               : Lossy
Stream size                    : 99.0 MiB (5%)
Encoded date                   : UTC 2010-09-22 08:35:35
Tagged date                    : UTC 2010-09-22 08:35:39



الملفات ذات العلاقة بـ ( جميع حلقات بليتش و الأفلام و الأوفا )
Hokuto no Ken (جميع الحلقات + الأفلام + الأوفات) مترجم + المسلسل المدبلج سيف النار 1 2 49.87 GB
جميع حلقات الانمي Shuffle 1 0 4.10 GB
جميع حلقات Made in Abyss بلوراي 4 1 9.94 GB
جميع حلقات Majin Tantei Nougami Neuro 3 0 4.28 GB
جميع حلقات انمي Blue Drop مترجم 3 0 3.32 GB
mostafarefat2012لااقدر تحميل هذا مسلسل بسبب سيد قليل جدا وانا الان في 74% فارجوا اعادة رفعها
islamelkot1متوسط التحميل 200 كيلو بالثانيه لا يوجد سييد بوكس
مسلسل لم يأخذ حقه كفاية
nolimitما شاء الله
souheyel007السلام عليكم تم الدعم بالسيد 10gb/s وتحياتي لصاحب الموضوع الرائع
dzboudjema بارك الله فيك أخي ياريت لو كان السيد قوي يرجى الدعم من فضلكم سييييييد جاري الدعم ولو بتدفق ضعيف، تحياتي :)
dzboudjemaبارك الله فيك أخي ياريت لو كان السيد قوي يرجى الدعم من فضلكم سييييييد
cyberlanderشكراااا
bemcoالسيد ضعيف
mo7amed_980السيد ضعيف الداونلود عندي صفر والابلود 50kb
TeTmOrمشكــــــــــــــــــــــــــــور على المجهود
fares_emperorتشكر ع جهودك يعطيك العافيه ..
haeedarسلمت يداك
osamacreedجزاك الله خيرا على مجهودك الرائع
aseefممممممششششششششششششششششششششكووووووووررررررررررررررررررررررررين
akram008وعليكم السلام شكرآ لك على توفير هذا الملف المميز لااحد افضل الانميات الاسطوراية وبجودة رائعه وحجم صغير لدي ما يقرب 3 تجميعات تورنت للمسلسل وهذا الرابع وهو الافضل حتى الان من ناحية الجودة واسمي المترجمين جاري الدعم با 10 GB هل يوجد لديك ملف مثل هذا للمسلسل ناروتو |دمت لمن يحبك~
ABBAشكرا لك بس سيد بوكس بسرعه رفع 500-600 كيلوبايت، مش هذا قليل تحياتي
arabs-softتم الدعم بالسيد بوكس :)
TheMoHanDتم إضافة السكرين شوت و الفرق المترجمة
zin123تسلم ايديك وشكراً على الاضافة اوفات العمل اذ اصبح مدعوم بسيرفر واحد وبسرعة خط عالية بيكون افضل من 80 سيد من اجهزة عادية . ولكن يااستاذي . اتمنى لو تحط لنا سكرين لتوضيح الجودة تحياتي ومتابعين .
شكرا لك أخي الكريم ، لولاك ما كنت شفت هذه التحفة الفنية :)

الرئيسية - قائمة ملفات التورنت - فيسبوك