انقر هنا لمشاهدة النسخة الكاملة للصفحة

تورنت - مدبلج للعربية Wreck It Ralph 2012 1080p BluRay x264 2Audio (English,Arabic) - alrmothe

افلام الحجم : 8.19 GB التراكر: خارجي المتصلين : 5,9  اكتمل ( 412 ) 03/03/2013 تحميل التورنت

.

Movies : Animation : BluRay : 2Audio


Wreck It Ralph 2012 1080p BluRay x264 2Audio (English,Arabic) - alrmothe


ضغطت الفيلم بقناتين الإنجيليزية والعربية

 1 arabp2p.com

 2 arabp2p.com



 3 arabp2p.com
IMDB:
http://www.imdb.com/title/tt1772341/
Genre: Animation | Adventure | Comedy
Source:Blu-ray Disc
Language:English,Arabic
File size:8.15GiB
Overall bit rate:11.5 Mbps
Duration:1h 41mn
Encoded / Released By:alrmothe


Storyline:Wreck-It Ralph longs to be as beloved as his game's perfect Good Guy, Fix-It Felix. Problem is, nobody loves a Bad Guy. But they do love heroes... so when a modern, first-person shooter game arrives featuring tough-as-nails Sergeant Calhoun

القصة : تناول الفيلم قصة لعبة فيديو كلاسيكية تعود إلى عام 1983 ورالف هو بطل اللعبة الشرير الذي صنع لهدم المباني داخلها، إلا أن رالف يتمرد على ذلك الوضع الشرير الذي كتب له باللعبة، لأنه في طبيعته خلاف ذلك، ترى ماذا يفعل رالف في هذا الأمر.

 4 arabp2p.com
cast
John C. Reilly...Ralph (voice)
Sarah Silverman ...Vanellope (voice)
Jack McBrayer...Felix (voice)
Jane Lynch...Calhoun (voice)
Alan Tudyk...King Candy (voice)

بطولة ( أصوات الممثلين )
 5 arabp2p.com


 6 arabp2p.com
Video Information
Format: Matroska
Format: AVC
Format/Info : Advanced Video Codec
Format profile: High@L4.1
Format settings, CABAC: Yes
Format settings, ReFrames: 4 frames
Muxing mode: Header stripping
Codec ID: V_MPEG4/ISO/AVC
Bit rate: 9304 Kbps
Display aspect ratio: 2.40:1
Frame rate mode: Constant
Frame rate: 23.976 fps
Color space: YUV
Chroma subsampling: 4:2:0
Bit depth: 8 bits
Scan type: Progressive
Bits/(Pixel*Frame): 0.250
Stream size: 6.42 GiB (79%
Resolution:1920x808


Audio Information:
Audio #1
Format : DTS
Format/Info : Digital Theater Systems
Mode : 16
Format settings, Endianness : Big
Muxing mode : Header stripping
Codec ID : A_DTS
Duration : 1h 41mn
Bit rate mode : Constant
Bit rate : 1509 Kbps
Channel(s) : 6 channels
Channel positions : Front: L C R, Side: L R, LFE
Sampling rate  : 48.0 KHz
Bit depth  : 24 bits
Compression mode : Lossy
Stream size  : 1.07 GiB (13%)
Language:English



Audio #2
ID  : 3
Format: AC-3
Format/Info : Audio Coding 3
Mode extension: CM (complete main)
Format settings, Endianness: Big
Muxing mode : Header stripping
Codec ID : A_AC3
Duration: 1h 41mn
Bit rate mode: Constant
Bit rate : 640 Kbps
Channel(s): 6 channels
Channel positions: Front: L C R, Side: L R, LFE
Sampling rate: 48.0 KHz
Bit depth: 16 bits
Compression mode: Lossy
Stream size: 443 MiB (6%)
Language:Arabic
 7 arabp2p.com


كل الترجمات موجودة في ملف اسمه sub
SUBEnglish,Arabic,Spanish,French



Screenshots
 8 arabp2p.com
 9 arabp2p.com
 10 arabp2p.com
 11 arabp2p.com
 12 arabp2p.com
 13 arabp2p.com
 14 arabp2p.com
 15 arabp2p.com


Code

http://fr33dom.h33t.com:3310/announce
http://121.14.98.151:9090/announce
http://tracker.ex.ua/announce
http://tracker.torrentbay.to:6969/announce
http://exodus.desync.com:6969/announce
http://94.228.192.98/announce
http://tracker.coppersurfer.tk:6969/announce
udp://tracker.istole.it:80/announce
udp://fr33dom.h33t.com:3310/announce








Trailer






.

الملفات ذات العلاقة بـ ( مدبلج للعربية Wreck It Ralph 2012 1080p BluRay x264 2Audio (English,Arabic) - alrmothe )
فندق ترانسلفانيا مدبلج للعربية Hotel Transylvania 2012 1080p BluRay x264 2Audio (English,Arabic) multisub - alrmothe 7 2 6.95 GB
الجزء الثاني اخي الدب مدبلج للعربية Brother Bear 2 2006 1080p BluRay x264 2Audio (English,Arabic) - alrmothe 1 5 4.48 GB
A Bugs Life 1998 1080p x264 2Audio (Arabic, English) - alrmothe مدبلج 2 3 4.22 GB
بينوكيو مدبلج للعربية Pinocchio 1940 BluRay 1080p x264 3Audio (Arabic,English,Russian) - alrmothe 4 0 4.46 GB
Finding Nemo 2003 BluRay 1080p x264 2Audio (English,Arabic) - alrmothe 3 6 8.11 GB
SolitaryxrhHostname not found ..
newlineشكرًا جزيلا تسلم ايدك ممكن لو سمحت تعيد السيد حتى أقدر انزل الفيلم مع خالص الشكر والتقدير
alrmotheالله يعافيكم ادخل على هذا الرابط وسوف تجد بالأسفل طريقة تغيير قناة الصوت http://www.arabp2p.com/index.php?page=torrent-details&id=e3831bae7e7cf0f471ff61c7908101c1f4c50adb
moonyجميل يعطيك العافية .. بس كيف افتح الدبلجة العربية ؟ ببرنامج مشغل معين ولا ؟ ^^
rosalindahttp://img19.imageshack.us/img19/9593/2d97871c97.gif
ayman44http://img692.imageshack.us/img692/6834/2134231330643943.gif
eljokerhttp://img19.imageshack.us/img19/9593/2d97871c97.gif

الرئيسية - قائمة ملفات التورنت - فيسبوك