انقر هنا لمشاهدة النسخة الكاملة للصفحة

تورنت - The Boys Who Cried Wolf.KOREAN.2015.1080p.H264-Subbed Arabic

افلام آسيوية الحجم : 950.06 MB التراكر: داخلي المتصلين : 0,0  اكتمل ( 19 ) 25/11/2016 تحميل التورنت

 1 arabp2p.com

The Boys Who Cried Wolf.KOREAN.2015.1080p.H264-Subbed Arabic

مع الترجمة العربية

 2 arabp2p.com

 3 arabp2p.com

ﻓﻴﻠﻢ كوريا الشمالية 80 دقيقة ﺗﻢ ﻋﺮﺿﻪ
تاريخ العرض: 2 جوان 2016
تصنيف العمل: جريمة - دراما
ﺇﺧﺮاﺝ: كيم جين-هوانج (مخرج)
ﺗﺄﻟﻴﻒ: كيم جين-هوانج (وسيناريو وحوار) سو جاي-وون (قصة)
طاقم العمل:  بارك جونغ-هوان    شا راي-هوونج     يونج جانغ-ايل     سونغ ها-جوون


 4 arabp2p.com



 5 arabp2p.com

وان جوو (Park Jong-Hwan) ممثّل مسرحي ولكنه يقوم بكسب المال عنْ طريق لعب أدوار خاصة يطلبها منهُ العُملاء. يُطلبْ منه أنْ يكون شاهدًا في قضية قتل منْ قِبل والدة الضحية. بالرُغم من أنه لم يرغب بذلك، ولكنهُ كان بحاجة للمال. ممّا دفعهُ للذهاب إلى مركز الشرطة وتقديم شهادة زور. يكتشف وان جوو بأنّ هناكَ حقيقة أخرى وراء القضية، ويُدرك بأنهُ ارتكبَ خطأً كبيرًا سيعود عليه بعواقبَ وخيمة.

 6 arabp2p.com


Code
Format                      : MPEG-4
Format profile              : Base Media
Codec ID                    : isom (isom/avc1/iso6)
File size                   : 949 MiB
Duration                    : 1 h 19 min
Overall bit rate mode       : Variable
Overall bit rate            : 1 668 kb/s
Encoded date                : UTC 2016-10-23 23:08:12
Tagged date                 : UTC 2016-10-23 23:08:12

Video
ID                          : 1
Format                      : AVC
Format/Info                 : Advanced Video Codec
Format profile              : High@L4.1
Format settings, CABAC      : Yes
Format settings, ReFrames   : 4 frames
Codec ID                    : avc1
Codec ID/Info               : Advanced Video Coding
Duration                    : 1 h 19 min
Bit rate                    : 1 602 kb/s
Maximum bit rate            : 8 233 kb/s
Width                       : 1 920 pixels
Height                      : 1 080 pixels
Display aspect ratio        : 16:9
Frame rate mode             : Constant
Frame rate                  : 29.970 (30000/1001) FPS
Color space                 : YUV
Chroma subsampling          : 4:2:0
Bit depth                   : 8 bits
Scan type                   : Progressive
Bits/(Pixel*Frame)          : 0.026
Stream size                 : 911 MiB (96%)
Writing library             : x264 core 148 r2638 7599210
Encoding settings           : cabac=1 / ref=2 / deblock=1:-1:-1 / *censored*yse=0x3:0x113 / me=hex / subme=4 / psy=1 / psy_rd=1.00:0.00 / mixed_ref=1 / me_range=16 / chroma_me=1 / trellis=0 / 8x8dct=1 / cqm=0 / deadzone=21,11 / fast_pskip=1 / chroma_qp_offset=0 / threads=12 / lookahead_threads=3 / sliced_threads=0 / nr=0 / decimate=1 / interlaced=0 / bluray_compat=0 / constrained_intra=0 / bframes=3 / b_pyramid=2 / b_adapt=1 / b_bias=0 / direct=3 / weightb=1 / open_gop=0 / weightp=2 / keyint=300 / keyint_min=29 / scenecut=40 / intra_refresh=0 / rc_lookahead=40 / rc=2pass / mbtree=1 / bitrate=1602 / ratetol=1.0 / qcomp=0.60 / qpmin=10 / qpmax=51 / qpstep=4 / cplxblur=20.0 / qblur=0.5 / vbv_maxrate=50000 / vbv_bufsize=50000 / nal_hrd=none / filler=0 / ip_ratio=1.40 / aq=1:1.00
Encoded date                : UTC 2016-10-23 23:08:12
Tagged date                 : UTC 2016-10-23 23:08:24

Audio
ID                          : 2
Format                      : AAC
Format/Info                 : Advanced Audio Codec
Format profile              : HE-AAC / LC
Codec ID                    : 40
Duration                    : 1 h 19 min
Bit rate mode               : Variable
Bit rate                    : 63.9 kb/s
Maximum bit rate            : 82.6 kb/s
Channel(s)                  : 2 channels
Channel positions           : Front: L R
Sampling rate               : 48.0 kHz / 24.0 kHz
Frame rate                  : 23.438 FPS (1024 spf)
Compression mode            : Lossy
Stream size                 : 36.3 MiB (4%)
Encoded date                : UTC 2016-10-23 22:07:39
Tagged date                 : UTC 2016-10-23 23:08:24



تنويه: الفيلم غير مُناسب للمُشاهدة العائلية

 7 arabp2p.com

 8 arabp2p.com

 9 arabp2p.com

 10 arabp2p.com

 11 arabp2p.com

 12 arabp2p.com




 13 arabp2p.com


الملفات ذات العلاقة بـ ( The Boys Who Cried Wolf.KOREAN.2015.1080p.H264-Subbed Arabic )
Train to Busan 2016 Korean 720p -Subbed Arabic 1 0 848.52 MB
The Wailing (2016) LIMITED 720p BluRay x264-Subbed Arabic 1 0 748.03 MB
My Sassy Girl (English Subs) (Korean Movie - Yeopgijeogin geunye + الترجمة 144 12 662.09 MB
Ertugrul-1890 (2015) 1080p 4 1 3.85 GB
Saawariya 2007 arabic 3 1 2.19 GB

الرئيسية - قائمة ملفات التورنت - فيسبوك