انقر هنا لمشاهدة النسخة الكاملة للصفحة

تورنت - فندق ترانسلفانيا مدبلج للعربية Hotel Transylvania 2012 1080p BluRay x264 2Audio (English,Arabic) multisub - alrmothe

افلام الحجم : 6.95 GB التراكر: خارجي المتصلين : 2,7  اكتمل ( 313 ) 29/01/2013 تحميل التورنت

.

Movies : Animation : BluRay : 2Audio


Hotel Transylvania 2012 1080p BluRay x264 2Audio (English,Arabic) multisub - alrmothe

مدعوم بسيد بوكس سرعة الإتصال 10 جيجا

 1 arabp2p.com

 2 arabp2p.com

ضغطت الفيلم بقناتين الإنجليزية والعربية واستخرجت الترجمة العربية من قرص البلوراي تجدون الترجمة موجوده في ملف مضغوط ( ون رار )

 3 arabp2p.com
IMDB:
http://www.imdb.com/title/tt0837562/
Genre: Animation | Comedy | Family
Source:Blu-ray Disc
Language:English,Arabic
File size:6.93GiB
Overall bit rate:10.8 Mbps
Duration:1h 31mn
Encoded / Released By:alrmothe


Storyline:In 1895, Dracula builds a resort in Transylvania, hidden from the humans, to raise his beloved daughter Mavis in a safe environment. In the present days, the place is the Hotel Transylvania, where monsters bring their families to spend vacation far from the frightening humans. Dracula invites his friends - Frankenstein and his wife Eunice; Wayne and Wanda, the werewolves; Griffin, the invisible man; Murray, the mummy; the Bigfoot, among others - to celebrate the 118th birthday of Mavis. When the party is ready to start, the 21-year-old Jonathan is walking through the forest and stumbles at the hotel. Dracula sees Jonathan and disguises him as a monster to hide Jonathan from the guests. But Mavis also sees Jonathan and Dracula forces him to pose of a monster. Soon Mavis believes that Jonathan is the \"zing\" of her life despite the advices of her father about the humans.

القصة: يمتلك دراكولا منتجعاً راقياً بعيداً عن العالم البشري، فماذا يفعل عندما يكتشف أن هناك صبي يستكشف منتجعه، ويقع في غرام ابنته المراهقة

 4 arabp2p.com
cast
Adam Sandler...Dracula (voice)
Andy Samberg...Jonathan (voice)
Selena Gomez...Mavis (voice)
Kevin James...Frankenstein (voice)
Fran Drescher...Eunice (voice)
Steve Buscemi...Wayne (voice)

بطولة ( أصوات الممثلين )
 5 arabp2p.com


 6 arabp2p.com
Video Information
Format: Matroska
Format: AVC
Format/Info : Advanced Video Codec
Format profile: High@L4.1
Format settings, CABAC: Yes
Format settings, ReFrames: 4 frames
Muxing mode: Header stripping
Codec ID: V_MPEG4/ISO/AVC
Bit rate: 8685 Kbps
Display aspect ratio: 1.85:1
Frame rate mode: Constant
Frame rate: 23.976 fps
Color space: YUV
Chroma subsampling: 4:2:0
Bit depth: 8 bits
Scan type: Progressive
Bits/(Pixel*Frame): 0.182
Stream size: 5.42 GiB (78%
Resolution:1920x1036


Audio Information:
Audio #1
Format : DTS
Format/Info : Digital Theater Systems
Mode : 16
Format settings, Endianness : Big
Muxing mode : Header stripping
Codec ID : A_DTS
Duration : 1h 31mn
Bit rate mode : Constant
Bit rate : 1509 Kbps
Channel(s) : 6 channels
Channel positions : Front: L C R, Side: L R, LFE
Sampling rate  : 48.0 KHz
Bit depth  : 24 bits
Compression mode : Lossy
Stream size  : 988 GiB (14%)
Title : DTS 1536 Kbps
Language:English

Audio #2
ID  : 3
Format: AC-3
Format/Info : Audio Coding 3
Mode extension: CM (complete main)
Format settings, Endianness: Big
Muxing mode : Header stripping
Codec ID : A_AC3
Duration: 1h 31mn
Bit rate mode: Constant
Bit rate : 640 Kbps
Channel(s): 6 channels
Channel positions: Front: L C R, Side: L R, LFE
Sampling rate: 48.0 KHz
Bit depth: 16 bits
Compression mode: Lossy
Stream size: 419 MiB (6%)
Title : AC3 640
Language:Arabic

 7 arabp2p.com




من ناحية الترجمة فيمكنكم إظهارها أو إخفائها لأنها مرفقة بنفس الفيلم ما عليكم سوى إختيار اللغة التي تريدونها
SUB:English,English SDH,Arabic,Spanish,French,Romanian,Dutch,Portuguesa.softsub. you can(on/off)

English
 8 arabp2p.com

Romanian
 9 arabp2p.com

Arabic
 10 arabp2p.com



Screenshots

 11 arabp2p.com
 12 arabp2p.com
 13 arabp2p.com
 14 arabp2p.com
 15 arabp2p.com
 16 arabp2p.com
 17 arabp2p.com
 18 arabp2p.com



Code

http://fr33dom.h33t.com:3310/announce
http://121.14.98.151:9090/announce
http://tracker.ex.ua/announce
http://tracker.torrentbay.to:6969/announce
http://exodus.desync.com:6969/announce
http://94.228.192.98/announce
http://tracker.coppersurfer.tk:6969/announce
udp://tracker.istole.it:80/announce
udp://fr33dom.h33t.com:3310/announce







Trailer






طرق تغيير قناة الصوت

برنامج Media Player Classic

 19 arabp2p.com


برنامج KMPlayer
1
 20 arabp2p.com

2
 21 arabp2p.com
بعد إختيار قناة الصوت نضغط على زر المربع ثم نقوم تشغيل الفيلم بالضغط على زر المثلث



برنامج VLC media playe
 22 arabp2p.com
أما الذي عنده البرنامج بالعربية من الخيارات التي بالأعلى نختار الصوت وبعد ذلك المقاطع الصوتية



















.

الملفات ذات العلاقة بـ ( فندق ترانسلفانيا مدبلج للعربية Hotel Transylvania 2012 1080p BluRay x264 2Audio (English,Arabic) multisub - alrmothe )
Hotel Transylvania 2012 1080p BluRay x264 LameyHost الجزء الأول من فندق ترانسلفانيا مدبلج للغة العربية 3 0 4.46 GB
Hotel Transylvania 2 2015 1080p BluRay x264 LameyHost الجزء الثاني من فندق ترانسلفانيا مدبلج للغة العربية 3 0 4.58 GB
مدبلج للعربية Wreck It Ralph 2012 1080p BluRay x264 2Audio (English,Arabic) - alrmothe 9 5 8.19 GB
Hotel Transylvania 3 Summer Vacation 2018 1080p BluRay x264 LameyHost الجزء الثالث من فندق ترانسلفانيا مدبلج للغة العربية 5 0 5.69 GB
Hotel Transylvania 2012 1080p BluRay Remux AVC DTS-HD MA5.1 LameyHost الجزء الأول من فندق ترانسلفانيا مدبلج للغة العربية 3 0 17.40 GB
aboali_1976الف شكر على هذاالمجهود الرائع
thedream كلمة رائع قليله بحقك ,, واصل الابداع ,,, سلمت يداك ^_^
albadriتسلم ايدك ياخي لاتحرمنا من ابداعك O:-
alrmotheومن قال سلم يا اخوي
zin123شغل جامد بالمرة ,,, تسلم الانامل يا بطل :)

الرئيسية - قائمة ملفات التورنت - فيسبوك