انقر هنا لمشاهدة النسخة الكاملة للصفحة

تورنت - الديناصور اللّطيف The Good Dinosaur 2015 1080p 3D Arabic

افلام الحجم : 4.62 GB التراكر: داخلي المتصلين : 0,3  اكتمل ( 127 ) 25/03/2016 تحميل التورنت

 1 arabp2p.com

أقدّم لأعضاء التراكر المفتوح الكرام الفلم الشيّق الديناصور اللّطيف
The Good Dinosaur 2015 1080p 3D مدبلجا إلى العربية الفصحى بتقنية ثلاثي الأبعاد


 2 arabp2p.com

 3 arabp2p.com
معلومات عن الإصدار:
 4 arabp2p.com
سنة الإنتاج: 2015
شركات الإنتاج: بيكسار، أفلام والت ديزني
نوع الفلم: أنيميشن - مغامرات - كوميدي
اللغة: العربية الفصحى
صيغة الفيديو: MKV
نوع العرض: ثلاثي الأبعاد [3D]
كود ضغط الفيديو: X264
كود الصوت: AC3
أبعاد الفيديو: 1920*1080
البت رايت: 7053 Kbps
مدة عرض الفلم: ساعة و 33 دقيقة



Code
Video
ID                          : 1
Format                      : AVC
Format/Info                 : Advanced Video Codec
Format profile              : High@L4.1
Format settings, CABAC      : Yes
Format settings, ReFrames   : 4 frames
Codec ID                    : V_MPEG4/ISO/AVC
Duration                    : 1h 33mn
Bit rate                    : 6 750 Kbps
Width                       : 1 920 pixels
Height                      : 1 080 pixels
Display aspect ratio        : 16:9
Frame rate mode             : Constant
Frame rate                  : 23.976 fps
Color space                 : YUV
Chroma subsampling          : 4:2:0
Bit depth                   : 8 bits
Scan type                   : Progressive
Bits/(Pixel*Frame)          : 0.136
Stream size                 : 4.32 GiB (93%)
Writing library             : x264 core 148 r2638 7599210


Audio
ID                          : 2
Format                      : AC-3
Format/Info                 : Audio Coding 3
Mode extension              : CM (complete main)
Format settings, Endianness : Big
Codec ID                    : A_AC3
Duration                    : 1h 33mn
Bit rate mode               : Constant
Bit rate                    : 320 Kbps
Channel(s)                  : 2 channels
Channel positions           : Front: L R
Sampling rate               : 48.0 KHz
Bit depth                   : 16 bits
Compression mode            : Lossy
Stream size                 : 215 MiB (5%)
Default                     : Yes
Forced                      : No





 5 arabp2p.com
صور للجودة:

 6 arabp2p.com
 7 arabp2p.com
 8 arabp2p.com
 9 arabp2p.com
 10 arabp2p.com
وأخيرا فضلا وليس أمرا ... البقاء على السيد أطول مدّة
ممكنة ليتسنّى للأعضاء الإستفادة وتقبّلوا خالص تحيّاتي
شكرا للأخ adben على تنسيق الموضوع

 11 arabp2p.com

الملفات ذات العلاقة بـ ( الديناصور اللّطيف The Good Dinosaur 2015 1080p 3D Arabic )
الديناصور اللّطيف The Good Dinosaur 2015 720p BDRip Arabic 3 0 2.23 GB
The Good Dinosaur 1080p BRrip Arabic - الديناصور اللطيف مدبلج صوت وصورة 3 0 1.86 GB
فيلم ديناصور مدبلج باللهجة المصرية Dinosaur [2000] 1080p Arabic 4 0 1.17 GB
قلباً و قالباً مدبلج Inside Out 2015 1080p Audio Arabic 3 0 1.43 GB
باربي في الأميرات والقدرات Barbie in Princess Power (2015) 1080p BRRip-Arabic 1 1 2.04 GB
ahmad-eidتم اعادة السيد لمساعدت الاخوان في التحميل
SalamAl-SaeeGH تحميل الفيلم معدوم نرجو دعمة شباب الفيلم مافيهوش سيد والتحميل واقف نرجو دعم السيد نرجو دعم السيد أصدقائي سيتم الدعم خلال ساعة او اكثر ان شاء الله, سبب الضعف هو مشكلة في الشبكة
Kooly911نرجو دعم السيد
newlineشباب الفيلم مافيهوش سيد والتحميل واقف نرجو دعم السيد
Kooly911تحميل الفيلم معدوم نرجو دعمة
mearaj_dvdيسلمو على الابداع
Youceph_Fellaoucenيعطيك العافية اخي على الاضافة الرائعة

الرئيسية - قائمة ملفات التورنت - فيسبوك