انقر هنا لمشاهدة النسخة الكاملة للصفحة

تورنت - Silent.Hill.Revelation.2012.Cam.720p.-NEW.SOURCE-.X264

افلام اجنبيه الحجم : 1.43 GB التراكر: خارجي المتصلين : 16,51  اكتمل ( 57 ) 10/11/2012 تحميل التورنت

Silent.Hill.Revelation.2012.Cam.720p.-NEW.SOURCE-.X264

[IMG]http://i45.*censored*/343gd3d.jpg[/IMG]

صور من الجودة

 1 arabp2p.com

[IMG]bitpic.bitboxes.co.uk/images/620absgprUA.png[/IMG]

 2 arabp2p.com

 3 arabp2p.com

Silent Hill Revelation 2012 Cam  720p [NEW SOURCE] X264 TommieCook


>>>general info here<<<
Encoder ..........: Tommie Cook                                                
Video Codec.......:AVI.X264
Video Bitrate.....: 2000 Kbps                          
Audio Codec.......: MP3
Audio Bitrate.....: 192 Kbps/2 channels                    
Resolution........: 1280x546
Runtime...........: 1h 42 min                      
Release Date......: N/A
Theatre Date......: 26 October 2012 (USA)
Language..........: English
Subtitles.........:  n/a
IMDB Rating.......:  6.5/10

>>>imdb link here<<<
http://www.imdb.com/title/tt0938330/


>>>video ifno here<<<
ID                                     : 0
Format                                 : AVC
Format/Info                              : Advanced Video Codec
Format profile                         : High@L3.1
Format settings, CABAC                 : Yes
Format settings, ReFrames                : 4 frames
Codec ID                               : X264
Codec ID/Info                            : XiWave GNU GPL x264 MPEG-4
Duration                               : 1h 27mn
Bit rate                               : 2 000 Kbps
Width                                    : 1 280 pixels
Height                                 : 546 pixels
Display aspect ratio                   : 2.35:1
Frame rate                             : 24.000 fps
Color space                              : YUV
Chroma subsampling                     : 4:2:0
Bit depth                                : 8 bits
Scan type                                : Progressive
Bits/(Pixel*Frame)                     : 0.119
Stream size                              : 1.22 GiB (86%)
Writing library                          : x264 core 125 r2200bm 999b753
Encoding settings                        : cabac=1 / ref=3 / deblock=1:0:0 / *censored*yse=0x3:0x113 / me=hex / subme=7 / psy=1 / psy_rd=1.00:0.00 / mixed_ref=1 / me_range=16 / chroma_me=1 / trellis=1 / 8x8dct=1 / cqm=0 / deadzone=21,11 / fast_pskip=1 / chroma_qp_offset=-2 / threads=9 / lookahead_threads=1 / sliced_threads=0 / nr=0 / decimate=1 / interlaced=0 / bluray_compat=0 / constrained_intra=0 / bframes=3 / b_pyramid=2 / b_adapt=1 / b_bias=0 / direct=1 / weightb=1 / open_gop=0 / weightp=2 / keyint=250 / keyint_min=24 / scenecut=40 / intra_refresh=0 / rc_lookahead=40 / rc=abr / mbtree=1 / bitrate=2000 / ratetol=1.0 / qcomp=0.60 / qpmin=0 / qpmax=69 / qpstep=4 / ip_ratio=1.40 / aq=1:1.00

>>>audio info here<<<
ID                                     : 1
Format                                 : MPEG Audio
Format version                         : Version 1
Format profile                         : Layer 3
Codec ID                               : 55
Codec ID/Hint                            : MP3
Duration                               : 1h 27mn
Bit rate mode                            : Constant
Bit rate                               : 320 Kbps
Channel(s)                             : 2 channels
Sampling rate                            : 44.1 KHz
Compression mode                       : Lossy
Delay relative to video                  : 222ms
Stream size                              : 199 MiB (14%)
Alignment                                : Split accross interleaves
Interleave, duration                   : 42 ms (1.00 video frame)
Interleave, preload duration           : 500 ms
Writing library                          : LAMELAME_MAJOR_VERSI

الملفات ذات العلاقة بـ ( Silent.Hill.Revelation.2012.Cam.720p.-NEW.SOURCE-.X264 )
Silent Hill Revelation[2012] 9 159 1.32 GB
Silent Hill Revelation 3D 2012 TS Xvid 1172 386 717.40 MB
Silent Hill Revelation 2012 FRENCH DVDRip XviD 3003 594 701.13 MB
Silent Hill Revelation 2012 WEBRip XviD-ViP3R+الترجمة الخارجية 11426 4768 710.71 MB
Silent.Hill.Revelation.DVDRip.XVID 49 47 713.97 MB

الرئيسية - قائمة ملفات التورنت - فيسبوك