انقر هنا لمشاهدة النسخة الكاملة للصفحة

تورنت - A Bugs Life 1998 1080p x264 2Audio (Arabic, English) - alrmothe مدبلج

افلام الحجم : 4.22 GB التراكر: خارجي المتصلين : 3,2  اكتمل ( 0 ) 24/10/2012 تحميل التورنت

.


Movies : Animation : HD1080p :2Audio

A Bugs Life 1998 1080p x264 2Audio(Arabic, English) - alrmothe

 1 arabp2p.com

 2 arabp2p.com



مدبلج للعامية المصرية

الفيديو بقناتين العربية والإنجليزية ولكن العربية هي القناة الأولى أي أن القناة العربية تعمل تلقائياً دون الحاجة إلى تغيير قناة الصوت

 3 arabp2p.com
IMDB:
http://www.imdb.com/title/tt0120623/
Genre: Animation | Adventure | Comedy
Source:Blu-ray Disc
Language:Arabic, English
File size:4.20 GiB
Overall bit rate:6340 Kbps
Duration:1h 34mn
Encoded / Released By:alrmothe



 4 arabp2p.com

Video Information
Format :Matroska
Format : AVC
Format profile:High@L4.1
Video Bit rate:5060 Kbps
Frame Rate: 23.976 fps
Bit depth : 8 bits
Scan type : Progressive
Bits/(Pixel*Frame):0.135
Stream size:3.27 GiB(78%)
Resolution:1920x816


Audio Information:
Format : AC-3
Bit rate mode : Constant
Bit rate : 640 Kbps
Channel(s) : 6 channels
Channel positions:Front: L C R, Side:L R,LFE
Sampling rate : 48.0 KHz
Bit depth : 16 bits
Compression mode : Lossy
Stream size:434 MiB(10%)
Language:Arabic

Format : AC-3
Bit rate mode : Constant
Bit rate : 640 Kbps
Channel(s) : 6 channels
Channel positions:Front: L C R, Side:L R,LFE
Sampling rate : 48.0 KHz
Bit depth : 16 bits
Compression mode : Lossy
Stream size:434 MiB(10%)
Language:English


الترجمة خارجية كل الترجمات موجودة في ملف اسمه sub
SUB:Arabic,Danish,Vietnamese,English,Croatian,Portuguese,Malay,Spanish.srt


المصدر قرص بلوراي الحجم قبل الضغط 38 جيجا

Screenshots

 5 arabp2p.com

 6 arabp2p.com

 7 arabp2p.com

 8 arabp2p.com

 9 arabp2p.com


 10 arabp2p.com




Code

http://p2pdl.com:2710/announce
udp://tracker.1337x.org:80/announce
http://exodus.desync.com/announce
http://fr33dom.h33t.com:3310/announce
http://121.14.98.151:9090/announce
http://tracker.ex.ua/announce
http://tracker.torrentbay.to:6969/announce
udp://tracker.istole.it:80/announce
http://94.228.192.98/announce
http://tracker.coppersurfer.tk:6969/announce







ويعمل على ميديا سيفر بلاي ستيشن 3

You can play movie on PlayStation 3 Media Server
http://www.ps3mediaserver.org/



لأفضل جودة استخدم برنامج kmplayer

For Best quality use kmplayer 3.3.0.33
http://kmplayer.en.softonic.com/








Trailer






.

الملفات ذات العلاقة بـ ( A Bugs Life 1998 1080p x264 2Audio (Arabic, English) - alrmothe مدبلج )
مدبلج للعربية Wreck It Ralph 2012 1080p BluRay x264 2Audio (English,Arabic) - alrmothe 9 5 8.19 GB
فندق ترانسلفانيا مدبلج للعربية Hotel Transylvania 2012 1080p BluRay x264 2Audio (English,Arabic) multisub - alrmothe 7 2 6.95 GB
الجزء الثاني اخي الدب مدبلج للعربية Brother Bear 2 2006 1080p BluRay x264 2Audio (English,Arabic) - alrmothe 1 5 4.48 GB
Finding Nemo 2003 BluRay 1080p x264 2Audio (English,Arabic) - alrmothe 3 6 8.11 GB
حياة حشرة [A Bugs Life [1998] [1080p - مدبلج 5 0 10.53 GB
newlineشكرًا أستاذي الكريم لو سمحت ممكن تعيد السيد لو أمكن مع جزيل الشكر
mohnnad79لو سمحت أخي إعادة السيد لو أمكن مع جزيل الشكر
newlineالفيلم مفيهوش سيد ممكن حد يساعدنا
asle_18تسلم اياديك 3>
harthpspمشكوررررر الله يرحم والديك
لك جزيل الشكر والإحترام لكن رجاءً إعادة السيد :) :)
altoreamirالله يعافيك يا أخوي
شكرا لك على هذة المشاركة المميزة;)
alrmotheالله يعافيك يا أخوي إيه من إنتاجي صدقني يا أخوي أي شي عندي ما أبخل فيه على أعضاءالتراكر المفتوح وأي عمل أقوم بإنتاجه أرفعه على مواقع كثيرة ومن ضمنها التراكر المفتوح
brak88السلام عليكم ورحمة الله وبركاته اولا عااااااااااااااااشت ايدك ياااااااااارائع وهل العمل من انتاجك؟؟ واذا من انتاجك ياريت تعمل قصة نملة وحكاية لعبة وشريك اذا كان متوفر لديك الدبلجة العربية وعااااااااااشت ايدك

الرئيسية - قائمة ملفات التورنت - فيسبوك