انقر هنا لمشاهدة النسخة الكاملة للصفحة

تورنت - فلم الرعب والاثارة The Shortcut 2009 DVDRip Xvid

افلام اجنبيه الحجم : 757.30 MB التراكر: خارجي المتصلين : 17,92  اكتمل ( 3428 ) 19/09/2011 تحميل التورنت

The Shortcut 2009 DVDRip Xvid

Horror | Thriller

 1 arabp2p.com

 2 arabp2p.com


Encoded By .......: BigPerm1828
Runtime ..........: 1h 25mn
File Size ........: 757 MB
Resolution .......: 704 x 396
IMDb URL .........: http://www.imdb.com/title/tt1243955/
Genre ............: Horror | Thriller
Language .........: English
Video
ID : 0
Format : MPEG-4 Visual
Format profile : Advanced Simpl
Format settings, BVOP : Yes
Format settings, QPel : No
Format settings, GMC : No warppoints
Format settings, Matrix : Default (H.263)
Codec ID : XVID
Codec ID/Hint : XviD
Duration : 1h 25mn
Bit rate : 790 Kbps
Width : 704 pixels
Height : 396 pixels
Display aspect ratio : 16:9
Frame rate : 23.976 fps
Color space : YUV
Chroma subsampling : 4:2:0
Bit depth : 8 bits
Scan type : Progressive
Compression mode : Lossy
Bits/(Pixel*Frame) : 0.118
Stream size : 481 MiB (64%)
Writing library : XviD 1.2.1 (UTC 2008-12-04)

Audio
ID : 1
Format : AC-3
Format/Info : Audio Coding 3
Mode extension : CM (complete main)
Codec ID : 2000
Duration : 1h 25mn
Bit rate mode : Constant
Bit rate : 448 Kbps
Channel(s) : 6 channels
Channel positions : Front: L C R, Side: L R, LFE
Sampling rate : 48.0 KHz
Bit depth : 16 bits
Compression mode : Lossy
Video delay : 42ms
Stream size : 273 MiB (36%)
Alignment : Split accross interleaves
Interleave, duration : 500 ms (11.99 video frames)
Interleave, preload duration : 500 ms


 3 arabp2p.com

 4 arabp2p.com


الملفات ذات العلاقة بـ ( فلم الرعب والاثارة The Shortcut 2009 DVDRip Xvid )
Kurtlar Vadisi Gladio 2009 DvDRip XviD +فيلم وادي الذئاب الجزء2 الترجمة 2 0 700.78 MB
فلم الجريمة والاثارة والرعب Coffin.2011.DVDRiP.XViD-TAST 252 1051 701.04 MB
فلم الرعب والاثارة والدراما The Presence 2010 PROPER DVDRip XViD-DOCUMENT 124 322 701.74 MB
فيلم الرعب الدموئ والآثارة الرهيب Wreckage 2010 DVDRiP XviD 22 8 704.17 MB
Paintball 2009 2009 DVDRip XviD 103 21 700.12 MB

الرئيسية - قائمة ملفات التورنت - فيسبوك