انقر هنا لمشاهدة النسخة الكاملة للصفحة

تورنت - مدبلج Tangled Ever After 2012 Arabic 1080p x264 AC3 - alrmothe

افلام الحجم : 1.35 GB التراكر: خارجي المتصلين : 2,17  اكتمل ( 225 ) 03/10/2012 تحميل التورنت

.


Movies : Animation : HD1080p :Arabic


الفيلم عبارة عن فيلم قصير

مدبلج باللهجة المصرية العامية

 1 arabp2p.com





 2 arabp2p.com
IMDB:
http://www.imdb.com/title/tt2112281/
Genre:Animation | Short | Action  
Source:Blu-ray Disc 7 GIB
Language:Arabic
File size  : 1.39 GiB
Duration : 6 MN
Overall bit rate :29.7 Mbps
Encoder:alrmothe


 3 arabp2p.com

Video Information
Format :Matroska
Format : AVC
Format profile : High@L4.1
Video Bit rate : 28.4 Mbps
Maximum bit rate : 33.0 Mbps
Display aspect ratio : 16:9
Frame Rate: 23.976 fps
Bit depth : 8 bits
Scan type : Progressive
Bits/(Pixel*Frame): 0.572
Stream size : 1.29 GiB (97%)
Resolution:1920x1080


Audio Information:
Format : AC-3
Bit rate mode : Constant
Bit rate : 640 Kbps
Channel(s) : 6 channels
Channel positions:Front: L C R, Side:L R,LFE
Sampling rate : 48.0 KHz
Bit depth : 16 bits
Compression mode : Lossy
Stream size : 29.7 MiB  (2%)



المصدر : قرص بلوراي الحجم قبل الضغط 7 جيجا




Screenshots

 4 arabp2p.com

 5 arabp2p.com

 6 arabp2p.com





ويعمل على ميديا سيفر بلاي ستيشن3

You can play movie on PlayStation 3 Media Server




kmplayer لأفضل جودة استخدم برنامج

For Best quality used kmplayer 3.3.0.33
http://kmplayer.en.softonic.com/







Trailer

http://www.youtube.com/watch?v=cjj5mqyszKE








.

الملفات ذات العلاقة بـ ( مدبلج Tangled Ever After 2012 Arabic 1080p x264 AC3 - alrmothe )
مدبلج Puss In Boots 2011 Arabic 1080p x264 AC3 - alrmothe 10 25 4.22 GB
How to Train Your Dragon 2010 Arabic 1080p x264 AC3 - alrmothe مدبلج 3 4 3.87 GB
مدبلج The Pirates Band of Misfits 2012 Arabic 1080p X264-alrmothe 16 9 4.33 GB
مدبلج للعربية Wreck It Ralph 2012 1080p BluRay x264 2Audio (English,Arabic) - alrmothe 9 5 8.19 GB
فندق ترانسلفانيا مدبلج للعربية Hotel Transylvania 2012 1080p BluRay x264 2Audio (English,Arabic) multisub - alrmothe 7 2 6.95 GB
dragonsmالف الف شكر على هذا الفلم الجميل
MissQueenالسسلآم عليكمَ ورحمة الله وبركاتهَ ، كيف الحال أخويَ .. بصراحة الكارتون هذآ حقق نجاح كبير في العالم طبعا من بعده فيلم FROZN عجبوني وايد .. ياليت لو يسوون له جزء اخر ، تسلمَ على الطرحَ وننتظر المزيد من ابداعاتكَ (= تقبلَ مروريَ ،.. MissQueen‘
thedream صار لي فترة ادور هالفلم ,,مشكووور اخوي :cool::)
hammode76جزاك الله خيرا وشكرا لك على هذة المشاركة المميزة
شهدشكرا لك على هذة المشاركة المميزة

الرئيسية - قائمة ملفات التورنت - فيسبوك