انقر هنا لمشاهدة النسخة الكاملة للصفحة

تورنت - A Violent Prosecutor 2016 Korean 720p HDRip-Subbed Arabic

افلام آسيوية الحجم : 1.17 GB التراكر: داخلي المتصلين : 0,0  اكتمل ( 39 ) 27/11/2016 تحميل التورنت

 1 arabp2p.com

A Violent Prosecutor 2016 Korean 720p HDRip-Subbed Arabic

مع الترجمة العربية

 2 arabp2p.com

 3 arabp2p.com

ﻓﻴﻠﻢ كوريا الشمالية 126 دقيقة ﺗﻢ ﻋﺮﺿﻪ
تاريخ العرض: 3 فيفري 2016
تصنيف العمل: جريمة - كوميدي
ﺇﺧﺮاﺝ: لي ايل-هيونغ (مخرج)
ﺗﺄﻟﻴﻒ: لي ايل-هيونغ (وسيناريو وحوار)
طاقم العمل: جونغ مين- هوانغ   دونغ-وون غانغ   جين-مو جوو


 4 arabp2p.com



 5 arabp2p.com

بيون جاي-ووك (Hwang Jung-Min) مُدعي عام سريع الغضب يسعى خلف الحقيقة فقط. ومشهور بتحقيقاته القاسية. ذات يوم يتم العثور على مشتبه به الخاضع للتحقيق لدى بيون جاي ووك ميتًا ويُلقى القبض عليه بتهمة سوء استخدام السُلطة. يلتقي بيون جاي ووك برجل مُحتال بالسجن يُدعى تشي وون (Gang Dong-Won) ويشعر بأنهُ القادر على تنفيذ خطته خارج السجن و باستخدام معرفته كمُدعي عام سابق، يجهز هجومًا مُضادًا على الذين قاموا بتلفيق التهمة له. لكن هل يستمرّ تشي وون بتنفيذ الخطة أم يهرّب بعيدًا!

 6 arabp2p.com


Code
Format                      : MPEG-4
Format profile              : Base Media
Codec ID                    : isom (isom/avc1/iso6)
File size                   : 1.17 GiB
Duration                    : 2 h 6 min
Overall bit rate mode       : Variable
Overall bit rate            : 1 327 kb/s
Encoded date                : UTC 2016-10-17 13:51:39
Tagged date                 : UTC 2016-10-17 13:51:39

Video
ID                          : 1
Format                      : AVC
Format/Info                 : Advanced Video Codec
Format profile              : High@L4.1
Format settings, CABAC      : Yes
Format settings, ReFrames   : 4 frames
Codec ID                    : avc1
Codec ID/Info               : Advanced Video Coding
Duration                    : 2 h 6 min
Bit rate                    : 1 260 kb/s
Maximum bit rate            : 11.4 Mb/s
Width                       : 1 280 pixels
Height                      : 720 pixels
Display aspect ratio        : 16:9
Frame rate mode             : Constant
Frame rate                  : 23.976 (24000/1001) FPS
Color space                 : YUV
Chroma subsampling          : 4:2:0
Bit depth                   : 8 bits
Scan type                   : Progressive
Bits/(Pixel*Frame)          : 0.057
Stream size                 : 1.11 GiB (95%)
Writing library             : x264 core 148 r2638 7599210
Encoding settings           : cabac=1 / ref=2 / deblock=1:-1:-1 / *censored*yse=0x3:0x113 / me=hex / subme=4 / psy=1 / psy_rd=1.00:0.00 / mixed_ref=1 / me_range=16 / chroma_me=1 / trellis=0 / 8x8dct=1 / cqm=0 / deadzone=21,11 / fast_pskip=1 / chroma_qp_offset=0 / threads=12 / lookahead_threads=3 / sliced_threads=0 / nr=0 / decimate=1 / interlaced=0 / bluray_compat=0 / constrained_intra=0 / bframes=3 / b_pyramid=2 / b_adapt=1 / b_bias=0 / direct=3 / weightb=1 / open_gop=0 / weightp=2 / keyint=240 / keyint_min=23 / scenecut=40 / intra_refresh=0 / rc_lookahead=40 / rc=2pass / mbtree=1 / bitrate=1260 / ratetol=1.0 / qcomp=0.60 / qpmin=10 / qpmax=51 / qpstep=4 / cplxblur=20.0 / qblur=0.5 / vbv_maxrate=50000 / vbv_bufsize=50000 / nal_hrd=none / filler=0 / ip_ratio=1.40 / aq=1:1.00
Encoded date                : UTC 2016-10-17 13:51:39
Tagged date                 : UTC 2016-10-17 13:51:54

Audio
ID                          : 2
Format                      : AAC
Format/Info                 : Advanced Audio Codec
Format profile              : HE-AAC / LC
Codec ID                    : 40
Duration                    : 2 h 6 min
Bit rate mode               : Variable
Bit rate                    : 64.0 kb/s
Maximum bit rate            : 102 kb/s
Channel(s)                  : 2 channels
Channel positions           : Front: L R
Sampling rate               : 44.1 kHz / 22.05 kHz
Frame rate                  : 21.533 FPS (1024 spf)
Compression mode            : Lossy
Stream size                 : 57.8 MiB (5%)
Encoded date                : UTC 2016-10-17 13:02:49
Tagged date                 : UTC 2016-10-17 13:51:54



 7 arabp2p.com

 8 arabp2p.com

 9 arabp2p.com

 10 arabp2p.com

 11 arabp2p.com

 12 arabp2p.com




 13 arabp2p.com


الملفات ذات العلاقة بـ ( A Violent Prosecutor 2016 Korean 720p HDRip-Subbed Arabic )
Train to Busan 2016 Korean 720p -Subbed Arabic 1 0 848.52 MB
House of the Disappeared 2016 HDRip 720p H264 AAC ArabicSub-Lp2p 2 0 1.20 GB
My Sassy Girl (English Subs) (Korean Movie - Yeopgijeogin geunye + الترجمة 144 12 662.09 MB
The Beast 2011 720p HDRip x264 AC3 46 3 1.72 GB
Naked Soldier 2012 720p HDRip x264 AC3 937 476 1.97 GB
nemr23الف شكر يا نجم على الفيلم والترجمة

الرئيسية - قائمة ملفات التورنت - فيسبوك