انقر هنا لمشاهدة النسخة الكاملة للصفحة

تورنت - Aakhree Raasta 1986 hd مترجم. أكشن أميتاب وسريديفى

افلام هنديه الحجم : 3.87 GB التراكر: داخلي المتصلين : 0,9  اكتمل ( 37 ) 12/08/2019 تحميل التورنت

 1 arabp2p.com






فيلم الأكشن الأروع

Aakhree Raasta 1986 hd
(نهاية طريق)


بطولة
الأسطورة أميتاب
سريديفى
أنوبام خير
جايا باردا

من ترجمتى nemr23
تعديل التوقيت أمير سامى


نسخة حصرية بجودة hd مترجمة بمساحة 3.86 جيجا



 2 arabp2p.com

 3 arabp2p.com

 4 arabp2p.com
General
Aakhree.Raasta.1986.WEB.1080p.by.nemr23.mp4
Format                      : MPEG-4
Format profile              : Base Media
Codec ID                    : isom (isom/iso2/avc1/mp41)
File size                   : 3.87 GiB
Duration                    : 2 h 36 min
Overall bit rate mode       : Variable
Overall bit rate            : 3 535 kb/s
Encoded date                : UTC 1970-01-01 00:00:00
Tagged date                 : UTC 1970-01-01 00:00:00
Writing application         : Lavf52.84.0

Video
ID                          : 1
Format                      : AVC
Format/Info                 : Advanced Video Codec
Format profile              : High@L5
Format settings             : CABAC / 5 Ref Frames
Format settings, CABAC      : Yes
Format settings, ReFrames   : 5 frames
Format settings, GOP        : M=4, N=13
Codec ID                    : avc1
Codec ID/Info               : Advanced Video Coding
Duration                    : 2 h 36 min
Bit rate                    : 3 453 kb/s
Width                       : 1 920 pixels
Height                      : 1 080 pixels
Display aspect ratio        : 16:9
Frame rate mode             : Constant
Frame rate                  : 25.000 FPS
Color space                 : YUV
Chroma subsampling          : 4:2:0
Bit depth                   : 8 bits
Scan type                   : Progressive
Bits/(Pixel*Frame)          : 0.067
Stream size                 : 3.79 GiB (98%)
Writing library             : x264 core 110
Encoding settings           : cabac=1 / ref=5 / deblock=1:0:0 / *censored*yse=0x3:0x133 / me=hex / subme=8 / psy=1 / psy_rd=1.00:0.00 / mixed_ref=1 / me_range=16 / chroma_me=0 / trellis=1 / 8x8dct=1 / cqm=0 / deadzone=21,11 / fast_pskip=1 / chroma_qp_offset=-2 / threads=8 / sliced_threads=0 / nr=0 / decimate=1 / interlaced=0 / constrained_intra=0 / bframes=3 / b_pyramid=0 / b_adapt=0 / b_bias=0 / direct=3 / weightb=1 / open_gop=0 / weightp=0 / keyint=13 / keyint_min=7 / scenecut=0 / intra_refresh=0 / rc_lookahead=13 / rc=abr / mbtree=1 / bitrate=3453 / ratetol=1.0 / qcomp=0.00 / qpmin=10 / qpmax=51 / qpstep=4 / ip_ratio=1.41 / aq=1:1.00
Encoded date                : UTC 1970-01-01 00:00:00
Tagged date                 : UTC 1970-01-01 00:00:00
Codec configuration box     : avcC

Audio
ID                          : 2
Format                      : AAC
Format/Info                 : Advanced Audio Codec
Format profile              : LC
Codec ID                    : mp4a-40-2
Duration                    : 2 h 36 min
Bit rate mode               : Variable
Bit rate                    : 64.7 kb/s
Channel(s)                  : 2 channels
Channel positions           : Front: L R
Sampling rate               : 48.0 kHz
Frame rate                  : 46.875 FPS (1024 SPF)
Compression mode            : Lossy
Stream size                 : 72.5 MiB (2%)
Encoded date                : UTC 1970-01-01 00:00:00
Tagged date                 : UTC 1970-01-01 00:00:00


 5 arabp2p.com

 6 arabp2p.com

 7 arabp2p.com

 8 arabp2p.com

 9 arabp2p.com

 10 arabp2p.com

 11 arabp2p.com

 12 arabp2p.com

 13 arabp2p.com

 14 arabp2p.com

الملفات ذات العلاقة بـ ( Aakhree Raasta 1986 hd مترجم. أكشن أميتاب وسريديفى )
Shakti 1982 مترجم DVDRip درامى أكشن أميتاب ودليب كومار 2 0 2.60 GB
Thugs of Hindostan.2018 مترجم 1080p أكشن ومغامرات أميتاب وعامر خان 6 0 4.16 GB
Khud Daar 1982 مترجم DvDRip أكشن درامى أميتاب وبارفين بابى 3 0 1.42 GB
Major Saab 1998 مترجم 720p DvDRip أكشن رومانسى أميتاب وأجاى ديفجان 2 0 3.02 GB
Ek Rishtaa The Bond of Love 2001 مترجم أميتاب واكشاي 3 0 1.37 GB
nemr23 الله يسلم إيدك فعلا فيلم رائع ربنا يبارك فيك نورت الموضوع يا غالى
omar_abdoالله يسلم إيدك فعلا فيلم رائع
nemr23 الله ينور يا كبير تسلم اخى الغالى نورت الموضوع
nemr23 من اجمل افلام اميتباتشان تسلم على الاضافة الذهبية وعيدك مبارك , يا صديقي . تمام من اجمل افلامه دائما تسعدنى متابعتك وتعليقك وجارى رفع نسخ hd للافلام الشهيرة كل سنة وانت طيب اخى الحبيب نورت الموضوع
nemr23 فيلم رائع فعلا رائع نورت الموضوع يا غالى
abeedo22الله ينور يا كبير
zin123من اجمل افلام اميتباتشان تسلم على الاضافة الذهبية وعيدك مبارك , يا صديقي .
hanoclassicفيلم رائع
nemr23 عمل متكامل في الترجمة والجودة .. أبدعت اخي الغالي .. تسلم اخى الحبيب وعيد سعيد عليك كل سنة وانت طيب نورت الموضوع
HOLLYWOODعمل متكامل في الترجمة والجودة .. أبدعت اخي الغالي ..

الرئيسية - قائمة ملفات التورنت - فيسبوك