انقر هنا لمشاهدة النسخة الكاملة للصفحة

تورنت - 3D Saamri (1985) DVD9 with arabic sub

افلام هنديه الحجم : 6.68 GB التراكر: داخلي المتصلين : 0,0  اكتمل ( 5 ) 06/12/2016 تحميل التورنت

 1 arabp2p.com

يسرني أن أقدم لكم
فيلم الرعب والإثارة
3D Saamri (1985)
 2 arabp2p.com
 3 arabp2p.com
ترجمة :
عمرواحمدمحمد RAMBO23
 4 arabp2p.com
http://www.imdb.com/title/tt0260335/
 5 arabp2p.com
 6 arabp2p.com
 7 arabp2p.com
 8 arabp2p.com
 9 arabp2p.com
 10 arabp2p.com
 11 arabp2p.com
 12 arabp2p.com
 13 arabp2p.com
 14 arabp2p.com
 15 arabp2p.com
 16 arabp2p.com
 17 arabp2p.com
 18 arabp2p.com
 19 arabp2p.com
General
source: 3D Saamri (1985)  DVD9 Untouched PAL {EROS}

Format                      : MPEG-PS
File size                   : 6.68 GiB
Duration                    : 1 h 41 min
Overall bit rate mode       : Constant
Overall bit rate            : 9 378 kb/s

Video
ID                          : 224 (0xE0)
Format                      : MPEG Video
Format version              : Version 2
Format profile              : Main@Main
Format settings, BVOP       : No
Format settings, Matrix     : Custom
Format settings, GOP        : N=15
Duration                    : 1 h 41 min
Bit rate mode               : Constant
Bit rate                    : 9 000 kb/s
Width                       : 720 pixels
Height                      : 576 pixels
Display aspect ratio        : 16:9
Frame rate                  : 25.000 FPS
Standard                    : PAL
Color space                 : YUV
Chroma subsampling          : 4:2:0
Bit depth                   : 8 bits
Scan type                   : Progressive
Compression mode            : Lossy
Bits/(Pixel*Frame)          : 0.868
Time code of first frame    : 00:00:00:00
Time code source            : Group of pictures header
GOP, Open/Closed            : Open
GOP, Open/Closed of first f : Closed
Stream size                 : 6.38 GiB (96%)

Audio
ID                          : 189 (0xBD)-128 (0x80)
Format                      : AC-3
Format/Info                 : Audio Coding 3
Mode extension              : CM (complete main)
Format settings, Endianness : Big
Muxing mode                 : DVD-Video
Duration                    : 1 h 41 min
Bit rate mode               : Constant
Bit rate                    : 224 kb/s
Channel(s)                  : 2 channels
Channel positions           : Front: L R
Sampling rate               : 48.0 kHz
Frame rate                  : 31.250 FPS (1536 spf)
Bit depth                   : 16 bits
Compression mode            : Lossy
Delay relative to video     : -5 ms
Stream size                 : 163 MiB (2%)




 20 arabp2p.com

الملفات ذات العلاقة بـ ( 3D Saamri (1985) DVD9 with arabic sub )
Geraftaar.1985 مترجم NTSC DVD9 أكشن لأميتاب وكمال حسن 1 0 3.02 GB
ANTH (1994) UNTOUCHED {EROS} DVD9 with arabic sub 1 0 6.47 GB
Commando.1988.DVD9.Shemaroo.Untouched 2 0 6.75 GB
سلسلة بوليوود زمان : Mard 1985 1 0 6.14 GB
Family 2006 dvd9 مترجم أكشن وجريمة أميتاب وأكشاى كومار 1 0 2.17 GB
lalmeedaتسلم عزيزي عمر على الإضافة هاته، أرى أنّ أفلام الرعب تستهويك كثيراً، نادراً مانرى أفلام في بوليوود تهتم بهذا النوع، تقبل خالص تحياتي على جهدك.

الرئيسية - قائمة ملفات التورنت - فيسبوك